Loading...
Error

Скачать Ближайший родственник / Next of Kin (Джон Ирвин) [1989, триллер, криминал, боевик, BDRip AVC] [MVO]+[AVO]+[VO]+[Оригинал]+[Sub] торрент без регистрации

 
Статистика раздачи
Размер:  2,75 GB   |    Скачан:  88 раз
Сидов:  1  [  0 KB/s  ]  
 
Автор Сообщение

Marsianka

[] 

Название: Ближайший родственник
Оригинальное название: Next of Kin
Год выпуска: 1989
Страна: США
Жанр: триллер, криминал, боевик
Продолжительность: 01:48:20
Перевод: Профессиональный многоголосый, авторский, одноголосый закадровый

Режиссёр: Джон Ирвин

В ролях: Патрик Суэйзи, Адам Болдуин, Хелен Хант, Андреас Катсулас, Билл Пэкстон, Бен Стиллер, Лиам Нисон, Майкл Дж. Поллард, Тед Левайн, Дел Клоуз, Валентино Симо, Пол Греко, Винсент Гастаферро

Описание: Двое из многочисленного семейства Гейтсов живут и работают в Чикаго. Трумэн — полицейский, а Джеральд — водитель грузовика. К мафиозному бизнесмену Джону Изабелле приезжает в Чикаго сын Лоренс, и Джон определяет его в группу к гангстеру Джоуи Росселини, отличающемуся непомерной жестокостью. Вскоре после этого Джоуи в присутствии Лоренса убивает Джеральда Гейтса только за то, что тот не остановил грузовик по требованию гангстеров. Трумэн Гейтс, зная крутой нрав своих родственников и не желая кровопролития, встречается с Джоном Изабеллой и просит того выдать ему убийцу Джеральда, но получает отказ. У Трумэна нет улик, ему надо найти напарника Джеральда, который видел убийц. Между тем, один из деревенских Гейтсов брат Брайер приезжает в Чикаго и громит клуб Джона Изабеллы...



Качество: BDRip AVC
Формат: MKV
Видео: MPEG-4 AVC, 2790 Кбит/с, 1024x576, 23,976 кадра/с
Аудио 1: русский, AC3, 192 kbps, 2 ch, 48 kHz [профессиональный многоголосый]
Аудио 2: русский, AC3, 192 kbps, 2 ch, 48 kHz [авторский, Василий Горчаков]
Аудио 3: русский, AC3, 192 kbps, 2 ch, 48 kHz [одноголосый закадровый]
Аудио 4: английский, AC3, 192 kbps, 2 ch, 48 kHz [оригинал]
Субтитры: английские
Общее
Уникальный идентификатор : 186718091894306708570853177313724880004 (0x8C7898AFE2D9227D8A12BE2AE4265484)
Полное имя : D:VideoБлижайший родственник.1989.BDRip.AVC.mkv
Формат : Matroska
Версия формата : Version 4 / Version 2
Размер файла : 2,75 Гбайт
Продолжительность : 1 ч. 48 м.
Общий поток : 3630 Кбит/сек
Название фильма : BDRip -- STarankov
Дата кодирования : UTC 2015-05-20 03:47:50
Программа кодирования : mkvmerge v7.9.0 ('Birds') 64bit
Библиотека кодирования : libebml v1.3.1 + libmatroska v1.4.2
_STATISTICS_WRITING_APP : mkvmerge v7.9.0 ('Birds') 64bit
_STATISTICS_WRITING_DATE_UTC : 2015-05-20 03:47:50
_STATISTICS_TAGS : BPS DURATION NUMBER_OF_FRAMES NUMBER_OF_BYTES
DURATION : 01:48:20.544000000
NUMBER_OF_FRAMES : 203142
NUMBER_OF_BYTES : 156013056

Видео
Идентификатор : 1
Формат : AVC
Формат/Информация : Advanced Video Codec
Профиль формата : High@L4.1
Параметр CABAC формата : Да
Параметр ReFrames формата : 9 кадров
Идентификатор кодека : V_MPEG4/ISO/AVC
Продолжительность : 1 ч. 48 м.
Битрейт : 2790 Кбит/сек
Ширина : 1024 пикселя
Высота : 576 пикселей
Соотношение сторон : 16:9
Режим частоты кадров : Постоянный
Частота кадров : 23,976 кадра/сек
Цветовое пространство : YUV
Субдискретизация насыщенности : 4:2:0
Битовая глубина : 8 бит
Тип развёртки : Прогрессивная
Бит/(Пиксели*Кадры) : 0.197
Размер потока : 2,11 Гбайт (77%)
Библиотека кодирования : x264 core 146 r2538 121396c
Настройки программы : cabac=1 / ref=9 / deblock=1:-1:-1 / analyse=0x3:0x113 / me=umh / subme=10 / psy=1 / psy_rd=1.00:0.15 / mixed_ref=1 / me_range=32 / chroma_me=1 / trellis=2 / 8x8dct=1 / cqm=0 / deadzone=21,11 / fast_pskip=1 / chroma_qp_offset=-3 / threads=6 / lookahead_threads=1 / sliced_threads=0 / nr=0 / decimate=1 / interlaced=0 / bluray_compat=0 / constrained_intra=0 / bframes=10 / b_pyramid=2 / b_adapt=2 / b_bias=0 / direct=1 / weightb=1 / open_gop=0 / weightp=2 / keyint=230 / keyint_min=23 / scenecut=40 / intra_refresh=0 / rc_lookahead=40 / rc=crf / mbtree=0 / crf=20.0 / qcomp=0.60 / qpmin=0 / qpmax=69 / qpstep=4 / vbv_maxrate=40000 / vbv_bufsize=50000 / crf_max=0.0 / nal_hrd=none / filler=0 / ip_ratio=1.40 / pb_ratio=1.30 / aq=1:1.00
Язык : English
Default : Да
Forced : Нет
_STATISTICS_WRITING_APP : mkvmerge v7.9.0 ('Birds') 64bit
_STATISTICS_WRITING_DATE_UTC : 2015-05-20 03:47:50
_STATISTICS_TAGS : BPS DURATION NUMBER_OF_FRAMES NUMBER_OF_BYTES
DURATION : 01:48:20.536000000
NUMBER_OF_FRAMES : 155857
NUMBER_OF_BYTES : 2323827722

Аудио #1
Идентификатор : 2
Формат : AC-3
Формат/Информация : Audio Coding 3
Расширение режима : CM (complete main)
Параметр Endianness формата : Big
Идентификатор кодека : A_AC3
Продолжительность : 1 ч. 48 м.
Вид битрейта : Постоянный
Битрейт : 192 Кбит/сек
Каналы : 2 канала
Расположение каналов : Front: L R
Частота : 48,0 КГц
Битовая глубина : 16 бит
Метод сжатия : С потерями
Размер потока : 149 Мбайт (5%)
Заголовок : MVO
Язык : Russian
Default : Да
Forced : Нет

Аудио #2
Идентификатор : 3
Формат : AC-3
Формат/Информация : Audio Coding 3
Расширение режима : CM (complete main)
Параметр Endianness формата : Big
Идентификатор кодека : A_AC3
Продолжительность : 1 ч. 48 м.
Вид битрейта : Постоянный
Битрейт : 192 Кбит/сек
Каналы : 2 канала
Расположение каналов : Front: L R
Частота : 48,0 КГц
Битовая глубина : 16 бит
Метод сжатия : С потерями
Размер потока : 149 Мбайт (5%)
Заголовок : AVO (Василий Горчаков)
Язык : Russian
Default : Нет
Forced : Нет

Аудио #3
Идентификатор : 4
Формат : AC-3
Формат/Информация : Audio Coding 3
Расширение режима : CM (complete main)
Параметр Endianness формата : Big
Идентификатор кодека : A_AC3
Продолжительность : 1 ч. 48 м.
Вид битрейта : Постоянный
Битрейт : 192 Кбит/сек
Каналы : 2 канала
Расположение каналов : Front: L R
Частота : 48,0 КГц
Битовая глубина : 16 бит
Метод сжатия : С потерями
Размер потока : 149 Мбайт (5%)
Заголовок : одноголосый закадровый
Язык : Russian
Default : Нет
Forced : Нет

Аудио #4
Идентификатор : 5
Формат : AC-3
Формат/Информация : Audio Coding 3
Расширение режима : CM (complete main)
Параметр Endianness формата : Big
Идентификатор кодека : A_AC3
Продолжительность : 1 ч. 48 м.
Вид битрейта : Постоянный
Битрейт : 192 Кбит/сек
Каналы : 2 канала
Расположение каналов : Front: L R
Частота : 48,0 КГц
Битовая глубина : 16 бит
Метод сжатия : С потерями
Размер потока : 149 Мбайт (5%)
Заголовок : Original
Язык : English
Default : Нет
Forced : Нет

Текст
Идентификатор : 6
Формат : UTF-8
Идентификатор кодека : S_TEXT/UTF8
Идентификатор кодека/Информация : UTF-8 Plain Text
Заголовок : английские (для слабослышащих)
Язык : English
Default : Нет
Forced : Нет



Скачать Ближайший.родственник.Next.of.Kin.(Джон.Ирвин).[1989.триллер.криминал.боевик.BDRip.AVC].[MVO]+[AVO]+[VO]+[Оригинал]+[Sub].torrent без регистрации
Золото ЗОЛОТАЯ РАЗДАЧА! СКАЧАННОЕ НЕ ЗАСЧИТЫВАЕТСЯ! Золото
Дата: Зарегистрирован   [ Тип: внутренний ] Как тут cкачать?
MAGNET ссылка
MAGNET ссылка


Скачать .torrent

14 KB

Статус: проверено DHT
Скачан: торрент - 88 раз, раздача полностью - 6 раз
Размер: 2,75 GB
Оценка:  - (Голосов: 0)
Поблагодарили: 2
Поделиться ссылкой на эту раздачу с друзьями:
В контактеFacebookОдноклассникиTwitterLivejournalМой МирLiveinternet
 

 
Показать сообщения:    


Вы не можете начинать темы
Вы не можете отвечать на сообщения
Вы не можете редактировать свои сообщения
Вы не можете удалять свои сообщения
Вы не можете голосовать в опросах
Вы не можете прикреплять файлы к сообщениям
Вы можете скачивать файлы