Loading...
Error

Скачать Чудаки-Одиночки / Weird Loners (Сезон 01) (Jake Kasdan) [2015, комедия, HDTV] [720p] [MVO (GladiolusTV)]+[Original] торрент без регистрации

 
Статистика раздачи
Размер:  4,39 GB   |    Скачан:  200 раз
Сидов:  1  [  0 KB/s  ]  
 
Автор Сообщение

МихаНЕзатор

[] 

Чудаки-Одиночки / Weird Loners


Год выпуска: 2015
Страна: США
Жанр: комедия
Продолжительность: ~ 23 мин.
Перевод: Любительский (многоголосый закадровый) GladiolusTV
Режиссёр: Jake Kasdan, Robert Cohen, Reginald Hudlin
В ролях: Becki Newton, Zachary Knighton, Nate Torrence, Meera Rohit Kumbhani, Shari Albert, Annie Abrams, David Wain, Josh Casaubon, Tim Kang, Susie Essman, John Charles Meyer, Jessica Lu, Lee Weaver
Описание: Четверо одиночек, сторонящихся отношений, неожиданно вовлекаются в жизни друг друга и формируют ни на что не похожую связь в таунхаусе Квинса, Нью-Йорк.
Доп. информация: Озвучено студией GladiolusTV
Перевод и закадровый текст Wanker и TonMeister, а также Комзолова и Марондерай!

Ссылка на предыдущие и альтернативные раздачи:
Сэмпл: http://multi-up.com/1042112
Качество: HDTV 720p
Контейнер: MKV
Видео: AVC, 1280x720 (16:9), 3100-4100 kbps, 23,976 fps, 0,186 bpp
Аудио: русский / AC3 / 5.1 / 48 kHz / 448 kbps / 16 bit
Аудио 2: английский / AC3 / 5.1 / 48 kHz / 448 kbps / 16 bit
Субтитры: русские (надписи)

АНОНСЫ ПОПУЛЯРНЫХ РАЗДАЧ
Общее
Уникальный идентификатор : 183118382131845629355857833245244788240 (0x89C3514B0EE377297B02AF3667220E10)
Полное имя : /Volumes/4 TB/RuTracker/Weird.Loners.S01.720p.HDTV.GladiolusTV/Weird.Loners.S01E01.720p.HDTV.GladiolusTV.mkv
Формат : Matroska
Версия формата : Version 4 / Version 2
Размер файла : 845 Мбайт
Продолжительность : 23 м.
Общий поток : 5104 Кбит/сек
Дата кодирования : UTC 2015-04-03 03:15:25
Программа кодирования : mkvmerge v7.8.0 ('River Man') 64bit
Библиотека кодирования : libebml v1.3.1 + libmatroska v1.4.2
DURATION : 00:06:33.892000000
NUMBER_OF_FRAMES : 11
NUMBER_OF_BYTES : 720
_STATISTICS_WRITING_APP : mkvmerge v7.8.0 ('River Man') 64bit
_STATISTICS_WRITING_DATE_UTC : 2015-04-03 03:15:25
_STATISTICS_TAGS : BPS DURATION NUMBER_OF_FRAMES NUMBER_OF_BYTES
Видео
Идентификатор : 1
Формат : AVC
Формат/Информация : Advanced Video Codec
Профиль формата : High@L4.1
Параметр CABAC формата : Да
Параметр ReFrames формата : 5 кадров
Идентификатор кодека : V_MPEG4/ISO/AVC
Продолжительность : 23 м.
Битрейт : 4106 Кбит/сек
Ширина : 1280 пикселей
Высота : 720 пикселей
Соотношение сторон : 16:9
Режим частоты кадров : Постоянный
Частота кадров : 23,976 кадра/сек
Цветовое пространство : YUV
Субдискретизация насыщенности : 4:2:0
Битовая глубина : 8 бит
Тип развёртки : Прогрессивная
Бит/(Пиксели*Кадры) : 0.186
Размер потока : 680 Мбайт (80%)
Библиотека кодирования : x264 core 146 r2538 121396c
Настройки программы : cabac=1 / ref=5 / deblock=1:-2:-2 / analyse=0x3:0x113 / me=umh / subme=8 / psy=1 / psy_rd=1.05:0.00 / mixed_ref=1 / me_range=16 / chroma_me=1 / trellis=1 / 8x8dct=1 / cqm=0 / deadzone=21,11 / fast_pskip=1 / chroma_qp_offset=-2 / threads=24 / lookahead_threads=4 / sliced_threads=0 / nr=0 / decimate=1 / interlaced=0 / bluray_compat=0 / constrained_intra=0 / bframes=3 / b_pyramid=2 / b_adapt=2 / b_bias=0 / direct=3 / weightb=1 / open_gop=0 / weightp=2 / keyint=250 / keyint_min=23 / scenecut=40 / intra_refresh=0 / rc_lookahead=50 / rc=crf / mbtree=1 / crf=18.0 / qcomp=0.60 / qpmin=0 / qpmax=69 / qpstep=4 / ip_ratio=1.40 / aq=1:0.70
Язык : English
Default : Да
Forced : Нет
Аудио #1
Идентификатор : 2
Формат : AC-3
Формат/Информация : Audio Coding 3
Расширение режима : CM (complete main)
Параметр Endianness формата : Big
Идентификатор кодека : A_AC3
Продолжительность : 23 м.
Вид битрейта : Постоянный
Битрейт : 448 Кбит/сек
Каналы : 6 каналов
Расположение каналов : Front: L C R, Side: L R, LFE
Частота : 48,0 КГц
Битовая глубина : 16 бит
Метод сжатия : С потерями
Размер потока : 74,1 Мбайт (9%)
Заголовок : GladiolusTV
Язык : Russian
Default : Да
Forced : Нет
Аудио #2
Идентификатор : 3
Формат : AC-3
Формат/Информация : Audio Coding 3
Расширение режима : CM (complete main)
Параметр Endianness формата : Big
Идентификатор кодека : A_AC3
Продолжительность : 23 м.
Вид битрейта : Постоянный
Битрейт : 448 Кбит/сек
Каналы : 6 каналов
Расположение каналов : Front: L C R, Side: L R, LFE
Частота : 48,0 КГц
Битовая глубина : 16 бит
Метод сжатия : С потерями
Размер потока : 74,1 Мбайт (9%)
Заголовок : Оригинал
Язык : English
Default : Нет
Forced : Нет
Текст #1
Идентификатор : 4
Формат : UTF-8
Идентификатор кодека : S_TEXT/UTF8
Идентификатор кодека/Информация : UTF-8 Plain Text
Заголовок : Надписи
Язык : Russian
Default : Да
Forced : Нет
Текст #2
Идентификатор : 5
Формат : UTF-8
Идентификатор кодека : S_TEXT/UTF8
Идентификатор кодека/Информация : UTF-8 Plain Text
Заголовок : Оригинал
Язык : English
Default : Нет
Forced : Нет
Внимание! Раздача ведётся путём добавления новых серий; при каждом добавлении создётся новый торрент. Чтобы начать докачку новой серии, пользователям необходимо сделать следующее:
(1) остановить скачивание,
(2) удалить старый торрент у себя из клиента (старые серии удалять не надо),
(3) скачать новый торрент и запустить его у себя в клиенте вместо старого, при этом указать клиенту путь в старую папку куда и должно происходить скачивание новых серий.
Ваш клиент при этом должен произвести хеширование (проверку) старой папки (если не производит сам - помогите ему сделать это), и будет докачивать только те серии которых у вас ещё нет. Старые серии при этом не удаляются, а продолжают раздаваться!
Eсли вы уже удалили старые серии, то предотвратить повторную закачку старых серий можно, отжав галочку в соответсвующих местах при запуске нового торрента. По возможности, желательно не удалять старые серии как можно дольше чтобы релизёр не столько продолжал раздавать старые серии, а смог сконцентрироваться на новых.



Скачать Чудаки-Одиночки.Weird.Loners.(Сезон.01).(Jake.Kasdan).[2015.комедия.HDTV].[720p].[MVO.(GladiolusTV)]+[Original].torrent без регистрации
Золото ЗОЛОТАЯ РАЗДАЧА! СКАЧАННОЕ НЕ ЗАСЧИТЫВАЕТСЯ! Золото
Дата: Зарегистрирован   [ Тип: внутренний ] Как тут cкачать?
MAGNET ссылка
MAGNET ссылка


Скачать .torrent

45 KB

Статус: проверено DHT
Скачан: торрент - 200 раз, раздача полностью - 2 раз
Размер: 4,39 GB
Оценка:  - (Голосов: 0)
Поблагодарили: 0
Поделиться ссылкой на эту раздачу с друзьями:
В контактеFacebookОдноклассникиTwitterLivejournalМой МирLiveinternet
 

 
Показать сообщения:    


Вы не можете начинать темы
Вы не можете отвечать на сообщения
Вы не можете редактировать свои сообщения
Вы не можете удалять свои сообщения
Вы не можете голосовать в опросах
Вы не можете прикреплять файлы к сообщениям
Вы можете скачивать файлы