Loading...
Error

Скачать Чудаки-Одиночки / Weird Loners (Сезон 01) (Jake Kasdan) [2015, комедия, HDTVRip] [MVO (GladiolusTV)] торрент без регистрации

 
Статистика раздачи
Размер:  1,99 GB   |    Скачан:  202 раза

Полного источника не было: 24 минуты

 
Автор Сообщение

МихаНЕзатор

[] 

Чудаки-Одиночки / Weird Loners


Год выпуска: 2015
Страна: США
Жанр: комедия
Продолжительность: ~ 23 мин.
Перевод: Любительский (многоголосый закадровый) GladiolusTV
Режиссёр: Jake Kasdan, Robert Cohen, Reginald Hudlin
В ролях: Becki Newton, Zachary Knighton, Nate Torrence, Meera Rohit Kumbhani, Shari Albert, Annie Abrams, David Wain, Josh Casaubon, Tim Kang, Susie Essman, John Charles Meyer, Jessica Lu, Lee Weaver
Описание: Четверо одиночек, сторонящихся отношений, неожиданно вовлекаются в жизни друг друга и формируют ни на что не похожую связь в таунхаусе Квинса, Нью-Йорк.
Доп. информация: Озвучено студией GladiolusTV
Перевод и закадровый текст Wanker и TonMeister, а также Комзолова и Марондерай!


Качество: HDTVRip
Формат: AVI
Видео: xvid, 720x400 (16:9), 2000 kbps, 23,976 fps, 0,290 bpp
Аудио: MP3 / 2.0 / 48 kHz / 192 kbps
Субтитры: хардсабы на надписи

АНОНСЫ ПОПУЛЯРНЫХ РАЗДАЧ
Общее
Полное имя : /Volumes/4 TB/RuTracker/Weird.Loners.S01.HDTVRip.GladiolusTV/Weird.Loners.S01E01.HDTVRip.GladiolusTV.avi
Формат : AVI
Формат/Информация : Audio Video Interleave
Размер файла : 364 Мбайт
Продолжительность : 23 м.
Общий поток : 2197 Кбит/сек
Программа кодирования : Lavf51.12.1
Видео
Идентификатор : 0
Формат : xvid
Идентификатор кодека : xvid
Продолжительность : 23 м.
Битрейт : 1999 Кбит/сек
Ширина : 720 пикселей
Высота : 400 пикселей
Соотношение сторон : 16:9
Частота кадров : 23,976 кадра/сек
Бит/(Пиксели*Кадры) : 0.290
Размер потока : 330 Мбайт (91%)
Аудио
Идентификатор : 1
Формат : MPEG Audio
Версия формата : Version 1
Профиль формата : Layer 3
Режим : Joint stereo
Расширение режима : MS Stereo
Идентификатор кодека : 55
Идентификатор кодека/Подсказка : MP3
Продолжительность : 23 м.
Вид битрейта : Постоянный
Битрейт : 192 Кбит/сек
Каналы : 2 канала
Частота : 48,0 КГц
Метод сжатия : С потерями
Размер потока : 31,8 Мбайт (9%)
Выравнивание : Соединение по промежуткам
Продолжительность промежутка : 24 мс. (0,57 видеокадр)
Время предзагрузки промежутка : 24 мс.
Внимание! Раздача ведётся путём добавления новых серий; при каждом добавлении создётся новый торрент. Чтобы начать докачку новой серии, пользователям необходимо сделать следующее:
(1) остановить скачивание,
(2) удалить старый торрент у себя из клиента (старые серии удалять не надо),
(3) скачать новый торрент и запустить его у себя в клиенте вместо старого, при этом указать клиенту путь в старую папку куда и должно происходить скачивание новых серий.
Ваш клиент при этом должен произвести хеширование (проверку) старой папки (если не производит сам - помогите ему сделать это), и будет докачивать только те серии которых у вас ещё нет. Старые серии при этом не удаляются, а продолжают раздаваться!
Eсли вы уже удалили старые серии, то предотвратить повторную закачку старых серий можно, отжав галочку в соответсвующих местах при запуске нового торрента. По возможности, желательно не удалять старые серии как можно дольше чтобы релизёр не столько продолжал раздавать старые серии, а смог сконцентрироваться на новых.



Скачать Чудаки-Одиночки.Weird.Loners.(Сезон.01).(Jake.Kasdan).[2015.комедия.HDTVRip].[MVO.(GladiolusTV)].torrent без регистрации
Золото ЗОЛОТАЯ РАЗДАЧА! СКАЧАННОЕ НЕ ЗАСЧИТЫВАЕТСЯ! Золото
Дата: Зарегистрирован   [ Тип: внутренний ] Как тут cкачать?
MAGNET ссылка
MAGNET ссылка


Скачать .torrent

21 KB

Статус: проверено DHT
Скачан: торрент - 202 раз, раздача полностью - 1 раз
Размер: 1,99 GB
Оценка:  - (Голосов: 0)
Поблагодарили: 0
Поделиться ссылкой на эту раздачу с друзьями:
В контактеFacebookОдноклассникиTwitterLivejournalМой МирLiveinternet
 

 
Показать сообщения:    


Вы не можете начинать темы
Вы не можете отвечать на сообщения
Вы не можете редактировать свои сообщения
Вы не можете удалять свои сообщения
Вы не можете голосовать в опросах
Вы не можете прикреплять файлы к сообщениям
Вы можете скачивать файлы