Loading...
Error

Скачать Ближайший родственник / Родня / Next of Kin (Джон Ирвин) [1989, боевик, DVDRip] [MVO]+[AVO]+[Оригинал] торрент без регистрации

 
Статистика раздачи
Размер:  1,47 GB   |    Скачан:  84 раза
Сидов:  1  [  0 KB/s  ]  
 
Автор Сообщение

Marsianka

[] 



Страна: США
Производство: Lorimar Film Entertainment
Жанр: боевик
Год выпуска: 1989

Продолжительность: 01:48:19

Перевод: Профессиональный многоголосый, авторский

Оригинальная аудиодорожка: Английская

Режиссер: Джон Ирвин

В ролях: Патрик Суэйзи, Адам Болдуин, Хелен Хант, Андреас Катсулас, Билл Пэкстон, Бен Стиллер, Лиам Нисон, Майкл Дж. Поллард, Тед Левайн, Дел Клоуз, Валентино Симо, Пол Греко, Винсент Гастаферро

Описание: Двое из многочисленного семейства Гейтсов живут и работают в Чикаго. Трумэн — полицейский, а Джеральд — водитель грузовика. К мафиозному бизнесмену Джону Изабелле приезжает в Чикаго сын Лоренс, и Джон определяет его в группу к гангстеру Джоуи Росселини, отличающемуся непомерной жестокостью. Вскоре после этого Джоуи в присутствии Лоренса убивает Джеральда Гейтса только за то, что тот не остановил грузовик по требованию гангстеров. Трумэн Гейтс, зная крутой нрав своих родственников и не желая кровопролития, встречается с Джоном Изабеллой и просит того выдать ему убийцу Джеральда, но получает отказ. У Трумэна нет улик, ему надо найти напарника Джеральда, который видел убийц. Между тем, один из деревенских Гейтсов — брат Брайер приезжает в Чикаго и громит клуб Джона Изабеллы…



Исходник: DVD5 R1

Тип релиза: DVDRip

Контейнер: AVI

Видео: XviD, 1344 Кбит/с, 640x480
Аудио: Русский, английский (AC3, 2 ch, 192 Кбит/с)

1.Профессиональный многоголосый
2.Авторский (Горчаков)
3.Английский
Общее
Полное имя : D:1АААБлижайший родственник.avi
Формат : AVI
Формат/Информация : Audio Video Interleave
Размер файла : 1,47 Гбайт
Продолжительность : 1 ч. 48 м.
Общий поток : 1939 Кбит/сек
Программа кодирования : VirtualDubMod 1.5.10.2 (build 2540/release)
Библиотека кодирования : VirtualDubMod build 2540/release

Видео
Идентификатор : 0
Формат : MPEG-4 Visual
Профиль формата : Advanced Simple@L5
Параметр BVOP формата : 2
Параметр QPel формата : Нет
Параметр GMC формата : Без точки перехода
Параметр матрицы формата : Default (MPEG)
Идентификатор кодека : XVID
Идентификатор кодека/Подсказка : XviD
Продолжительность : 1 ч. 48 м.
Битрейт : 1344 Кбит/сек
Ширина : 640 пикселей
Высота : 480 пикселей
Соотношение сторон : 4:3
Частота кадров : 23,976 кадра/сек
Цветовое пространство : YUV
Субдискретизация насыщенности : 4:2:0
Битовая глубина : 8 бит
Тип развёртки : Прогрессивная
Метод сжатия : С потерями
Бит/(Пиксели*Кадры) : 0.182
Размер потока : 1,02 Гбайт (69%)
Библиотека кодирования : XviD 1.2.1 (UTC 2008-12-04)

Аудио #1
Идентификатор : 1
Формат : AC-3
Формат/Информация : Audio Coding 3
Расширение режима : CM (complete main)
Параметр Endianness формата : Big
Идентификатор кодека : 2000
Продолжительность : 1 ч. 48 м.
Вид битрейта : Постоянный
Битрейт : 192 Кбит/сек
Каналы : 2 канала
Расположение каналов : Front: L R
Частота : 48,0 КГц
Битовая глубина : 16 бит
Метод сжатия : С потерями
Задержка видео : 3 с. 0 мс.
Размер потока : 149 Мбайт (10%)
Выравнивание : Разделение по промежуткам
Продолжительность промежутка : 42 мс. (1,00 видеокадр)
Время предзагрузки промежутка : 500 мс.

Аудио #2
Идентификатор : 2
Формат : AC-3
Формат/Информация : Audio Coding 3
Расширение режима : CM (complete main)
Параметр Endianness формата : Big
Идентификатор кодека : 2000
Продолжительность : 1 ч. 48 м.
Вид битрейта : Постоянный
Битрейт : 192 Кбит/сек
Каналы : 2 канала
Расположение каналов : Front: L R
Частота : 48,0 КГц
Битовая глубина : 16 бит
Метод сжатия : С потерями
Размер потока : 149 Мбайт (10%)
Выравнивание : Разделение по промежуткам
Продолжительность промежутка : 42 мс. (1,00 видеокадр)
Время предзагрузки промежутка : 500 мс.

Аудио #3
Идентификатор : 3
Формат : AC-3
Формат/Информация : Audio Coding 3
Профиль формата : Dolby Digital
Расширение режима : CM (complete main)
Параметр Endianness формата : Big
Идентификатор кодека : 2000
Продолжительность : 1 ч. 48 м.
Вид битрейта : Постоянный
Битрейт : 192 Кбит/сек
Каналы : 2 канала
Расположение каналов : Front: L R
Частота : 48,0 КГц
Битовая глубина : 16 бит
Метод сжатия : С потерями
Размер потока : 149 Мбайт (10%)
Выравнивание : Разделение по промежуткам
Продолжительность промежутка : 42 мс. (1,00 видеокадр)
Время предзагрузки промежутка : 500 мс.
Релиз:



Скачать Ближайший.родственник.Родня.Next.of.Kin.(Джон.Ирвин).[1989.боевик.DVDRip].[MVO]+[AVO]+[Оригинал].torrent без регистрации
Золото ЗОЛОТАЯ РАЗДАЧА! СКАЧАННОЕ НЕ ЗАСЧИТЫВАЕТСЯ! Золото
Дата: Зарегистрирован   [ Тип: внутренний ] Как тут cкачать?
MAGNET ссылка
MAGNET ссылка


Скачать .torrent

15 KB

Статус: проверено DHT
Скачан: торрент - 84 раз, раздача полностью - 7 раз
Размер: 1,47 GB
Оценка:  - (Голосов: 0)
Поблагодарили: 1
Поделиться ссылкой на эту раздачу с друзьями:
В контактеFacebookОдноклассникиTwitterLivejournalМой МирLiveinternet
 

 
Показать сообщения:    


Вы не можете начинать темы
Вы не можете отвечать на сообщения
Вы не можете редактировать свои сообщения
Вы не можете удалять свои сообщения
Вы не можете голосовать в опросах
Вы не можете прикреплять файлы к сообщениям
Вы можете скачивать файлы