Loading...
Error

Скачать Кошмары на стоянке трейлеров / Trailer Park of Terror (Стивен Голдманн) [2008, ужасы, триллер, HDRip] [MVO]+[Оригинал] торрент без регистрации

 
Статистика раздачи
Размер:  1,46 GB   |    Скачан:  96 раз
Сидов:  1  [  0 KB/s  ]  
 
Автор Сообщение

Marsianka

[] 



Страна: США
Производство:Bogner Entertainment, Lightning Entertainment, Trailer Park Partners
Жанр: ужасы, триллер
Год выпуска: 2008
Продолжительность:
Перевод: Профессиональный многоголосый
Оригинальная аудиодорожка: Английская
Режиссер: Стивен Голдманн
В ролях: Николь Хильтц, Лью Темпл, Джинетт Брокс, Мик Вотфорд, Мишель Ли, Эд Корбин, Рики Мейб, Коди МакМейнс, Хейли Норман, Райан Карнес

Описание: Шестеро проблемных школьников вместе со своим пастором едут в горы, но во время сильной грозы вынуждены остаться на ночь на безлюдной стоянке трейлеров. Только ночью, эта стоянка обретает совершенно иные черты и на ней господствует… ужас!!!



Исходник: Blu-Ray Remux (1080p)
Тип релиза: HDRip
Контейнер: AVI
Видео: 720x400 (1.80:1), 23.976 fps, XviD MPEG-4 ~1568 kbps avg, 0.23 bit/pixel
Аудио 1: 48 kHz, AC3 Dolby Digital, 2/0 (L,R) ch, ~384 kbps (русский)
Аудио 2: 48 kHz, AC3 Dolby Digital, 3/2 (L,R) ch, ~384 kbps (английский)
Общее
Полное имя : D:ААА2Кошмары на стоянке трейлеров.avi
Формат : AVI
Формат/Информация : Audio Video Interleave
Размер файла : 1,46 Гбайт
Продолжительность : 1 ч. 37 м.
Общий поток : 2160 Кбит/сек
Программа кодирования : VirtualDubMod 1.5.10.2 (build 2540/release)
Библиотека кодирования : VirtualDubMod build 2540/release

Видео
Идентификатор : 0
Формат : MPEG-4 Visual
Профиль формата : Advanced Simple@L5
Параметр BVOP формата : 2
Параметр QPel формата : Нет
Параметр GMC формата : Без точки перехода
Параметр матрицы формата : Default (MPEG)
Режим смешивания : Сжатый битовый поток
Идентификатор кодека : XVID
Идентификатор кодека/Подсказка : XviD
Продолжительность : 1 ч. 37 м.
Битрейт : 1570 Кбит/сек
Ширина : 720 пикселей
Высота : 400 пикселей
Соотношение сторон : 16:9
Частота кадров : 23,976 кадра/сек
Цветовое пространство : YUV
Субдискретизация насыщенности : 4:2:0
Битовая глубина : 8 бит
Тип развёртки : Прогрессивная
Метод сжатия : С потерями
Бит/(Пиксели*Кадры) : 0.227
Размер потока : 1,06 Гбайт (73%)
Библиотека кодирования : XviD 1.2.1 (UTC 2008-12-04)

Аудио #1
Идентификатор : 1
Формат : AC-3
Формат/Информация : Audio Coding 3
Расширение режима : CM (complete main)
Параметр Endianness формата : Big
Идентификатор кодека : 2000
Продолжительность : 1 ч. 37 м.
Вид битрейта : Постоянный
Битрейт : 192 Кбит/сек
Каналы : 2 канала
Расположение каналов : Front: L R
Частота : 48,0 КГц
Битовая глубина : 16 бит
Метод сжатия : С потерями
Размер потока : 133 Мбайт (9%)
Выравнивание : Разделение по промежуткам
Продолжительность промежутка : 42 мс. (1,00 видеокадр)
Время предзагрузки промежутка : 500 мс.

Аудио #2
Идентификатор : 2
Формат : AC-3
Формат/Информация : Audio Coding 3
Расширение режима : CM (complete main)
Параметр Endianness формата : Big
Идентификатор кодека : 2000
Продолжительность : 1 ч. 37 м.
Вид битрейта : Постоянный
Битрейт : 384 Кбит/сек
Каналы : 6 каналов
Расположение каналов : Front: L C R, Side: L R, LFE
Частота : 48,0 КГц
Битовая глубина : 16 бит
Метод сжатия : С потерями
Размер потока : 267 Мбайт (18%)
Выравнивание : Разделение по промежуткам
Продолжительность промежутка : 42 мс. (1,00 видеокадр)
Время предзагрузки промежутка : 500 мс.
Релиз:



Скачать Кошмары.на.стоянке.трейлеров.Trailer.Park.of.Terror.(Стивен.Голдманн).[2008.ужасы.триллер.HDRip].[MVO]+[Оригинал].torrent без регистрации
Золото ЗОЛОТАЯ РАЗДАЧА! СКАЧАННОЕ НЕ ЗАСЧИТЫВАЕТСЯ! Золото
Дата: Зарегистрирован   [ Тип: внутренний ] Как тут cкачать?
MAGNET ссылка
MAGNET ссылка


Скачать .torrent

15 KB

Статус: проверено DHT
Скачан: торрент - 96 раз, раздача полностью - 10 раз
Размер: 1,46 GB
Оценка:  - (Голосов: 0)
Поблагодарили: 1
Поделиться ссылкой на эту раздачу с друзьями:
В контактеFacebookОдноклассникиTwitterLivejournalМой МирLiveinternet
 

 
Показать сообщения:    


Вы не можете начинать темы
Вы не можете отвечать на сообщения
Вы не можете редактировать свои сообщения
Вы не можете удалять свои сообщения
Вы не можете голосовать в опросах
Вы не можете прикреплять файлы к сообщениям
Вы можете скачивать файлы