Loading...
Error

Скачать Воздушный волк (Небесный волк) / Airwolf (01-03x1-55 из 55) (Дональд П. Беллисарио) [1984-1986, боевик, BDRip] [720p] [MVO]+[Original] торрент без регистрации

 
Статистика раздачи
Размер:  124,54 GB   |    Скачан:  117 раз
Сидов:  1  [  0 KB/s  ]  
 
Автор Сообщение

МихаНЕзатор

[] 

Воздушный волк (Небесный волк) / Airwolf


Год выпуска: 1984-1986
Страна: США
Жанр: Боевик, приключения
Продолжительность: 1 x ~ 01:38:08, 54 х ~ 00:50:00
Перевод: Профессиональный (многоголосый закадровый)
Режиссёр: Дональд П. Беллисарио

В ролях: Ян-Майкл Винсент, Алекс Корд, Эрнест Боргнайн, Джин Брюс Скотт, Дебора Прэтт, Лэнс ЛеГолт, Монти Джордан, Сэнди Кроунмейер, Джон Брэндон, Исмаэль ’Ист’ Карло

Описание: Засекреченное подразделение ЦРУ, известное как "Фирма", разработало новый, оснащенный современным вооружением вертолет под названием "Небесный волк". Но во время пробного полета один из создателей "Небесного волка" повернул его беспощадную огневую мощь против своих и угнал вертолет в Ливию.



Качество: BDRip (720p)
Формат: MKV
Видео кодек: x264
Аудио кодек: MP3, DTS
Видео: 976x720 (4:3), 23.976 fps, MPEG-4 AVC ~4970 kbps avg, 0.295 bit/pixel
Аудио Rus: 48 kHz, MP3, 2 ch, 128.00 kbps avg
Аудио Eng: 48 kHz, DTS, 2 ch, 1509.00 kbps avg

АНОНСЫ ПОПУЛЯРНЫХ РАЗДАЧ

По многочисленным просьбам выкладываю: 3 Сезон. 12, 14-18 эпизоды на английском языке без перевода к сожалению.
12. Полпинты / Half-Pint (English)
14. Открытие / Discovery (English)
15. День опасности / Day of Jeopardy (English)
16. Волчонок / Little Wolf (English)
17. Отчаянный понедельник / Desperate Monday (English)
18. Побег Хоука / Hawke's Run (English)
Надеюсь хоть кто нибудь субтитры сделает к этим эпизодам (или озвучку хотя бы одноголосый любительский перевод).
DVDRip - 4 Сезон: К сожалению на английском языке а субтитры только к первым 4-ём сериям есть.
Огромная благодарность за видео с платного сайта которое предоставил - qsdyg
Аудио редактирование и синхронизация - CergMark то есть я (CerGold)
Видео от - geckos

1 Сезон:
01.Тень Хоука (2 части) / Shadow of the Hawke (2 part)
02. Папа пошел на охоту / Daddy's Gone a Hunt'n
03. Укус шакала / Bite of the Jackal
04. Сквозь ночь / Proof Through the Night
05. Билет в одну сторону / One Way Express
06. Призраки прошлого / Echoes from the Past
07. Битва голубки / Fight Like a Dove
08. Безумие над Майами / Mad Over Miami
09. И это оказались мы / And They Are Us
10. Мозг машины / Mind of the Machine
11. Поймать волка в капкан / To Snare a Wolf
2 Сезон:
01. Красотка / Sweet Britches
02. Огненная буря / Firestorm
03. Призрак Моффетта / Moffett's Ghost
04. Правда о Холли / The Truth About Holly
05. Охота / The Hunted
06. Грехи прошлого / Sins of the Past
07. Падший ангел / Fallen Angel
08. Эйч Икс-1 / HX-1
09. Пропавший рейс 093 / Flight #093 Is Missing
10. Быть героем / Once a Hero
11. Случайные жертвы / Random Target
12. Обречённые / Condemned
13. Американская мечта / The American Dream
14. Гостиница у дороги / Inn at the End of the Road
15. Миллионы Сантини / Santini's Millions
16. Пленник прошлого / Prisoner of Yesterday
17. Прирождённый пилот / Natural Born
18. С небес / Out of the Sky
19. Разрушители платин / Dambreakers
20. Выходное пособие / Severance Pay
21. Извержение вулкана / Eruption
22. Близкий путь к свободе / Short Walk to Freedom
3 Сезон:
01. Рог Изобилия / The Horn of Plenty
02. Воздушный волк 2 / Airwolf II
03. Дорогу укажет ребёнок / And a Child Shall Lead
04. Предсказатель / Fortune Teller
05. Переправа / Crossover
06. Загробный мир / Kingdom Come
07. Орлы / Eagles
08. Энни Оукли / Annie Oakley
09. Дженни / Jennie
10. Смертельный круг / The Deadly Circle
11. Куда подевались все дети? / Where Have All the Children Gone?
12. Полпинты / Half-Pint (English)
13. Адский огонь / Wildfire
14. Открытие / Discovery (English)
15. День опасности / Day of Jeopardy (English)
16. Волчонок / Little Wolf (English)
17. Отчаянный понедельник / Desperate Monday (English)
18. Побег Хоука / Hawke's Run (English)
19. Вторжение в Санта-Паулу / Break-In at Santa Paula
20. Девушка, которая упала с неба / The Girl Who Fell from the Sky
21. Маршрут полёта / Tracks
22. Райские птички / Birds of Paradise
General
Unique ID : 179775182023303685536372570432787771692 (0x873F70CD3C1C644B8C2C302ABEA0F12C)
Complete name : D:\Downloads\Временные файлы\Воздушный волк. BDRip (720p)\2 sezon\Airwolf.s02.e02. Огненная буря _ Firestorm.mkv
Format : Matroska
Format version : Version 4 / Version 2
File size : 2.23 GiB
Duration : 48mn 19s
Overall bit rate : 6 601 Kbps
Encoded date : UTC 2014-10-17 21:48:11
Writing application : mkvmerge v6.7.0 ('Back to the Ground') 32bit built on Jan 8 2014 15:03:17
Writing library : libebml v1.3.0 + libmatroska v1.4.1
Video
ID : 1
Format : AVC
Format/Info : Advanced Video Codec
Format profile : High@L4.1
Format settings, CABAC : Yes
Format settings, ReFrames : 5 frames
Codec ID : V_MPEG4/ISO/AVC
Duration : 48mn 19s
Bit rate : 4 963 Kbps
Width : 976 pixels
Height : 720 pixels
Display aspect ratio : 4:3
Frame rate mode : Constant
Frame rate : 23.976 fps
Color space : YUV
Chroma subsampling : 4:2:0
Bit depth : 8 bits
Scan type : Progressive
Bits/(Pixel*Frame) : 0.295
Stream size : 1.63 GiB (73%)
Writing library : x264 core 142 r2431 ac76440
Encoding settings : cabac=1 / ref=5 / deblock=1:0:0 / analyse=0x3:0x133 / me=umh / subme=7 / psy=1 / psy_rd=1.00:0.00 / mixed_ref=1 / me_range=16 / chroma_me=1 / trellis=1 / 8x8dct=1 / cqm=0 / deadzone=21,11 / fast_pskip=0 / chroma_qp_offset=-2 / threads=12 / lookahead_threads=2 / sliced_threads=0 / nr=0 / decimate=1 / interlaced=0 / bluray_compat=0 / constrained_intra=0 / bframes=3 / b_pyramid=2 / b_adapt=2 / b_bias=0 / direct=3 / weightb=1 / open_gop=0 / weightp=2 / keyint=250 / keyint_min=23 / scenecut=40 / intra_refresh=0 / rc_lookahead=50 / rc=2pass / mbtree=1 / bitrate=4963 / ratetol=1.0 / qcomp=0.60 / qpmin=0 / qpmax=69 / qpstep=4 / cplxblur=20.0 / qblur=0.5 / ip_ratio=1.40 / aq=1:1.00
Language : English
Default : Yes
Forced : No
Audio #1
ID : 2
Format : MPEG Audio
Format version : Version 1
Format profile : Layer 3
Codec ID : A_MPEG/L3
Codec ID/Hint : MP3
Duration : 48mn 19s
Bit rate mode : Constant
Bit rate : 128 Kbps
Channel(s) : 2 channels
Sampling rate : 48.0 KHz
Compression mode : Lossy
Stream size : 44.3 MiB (2%)
Writing library : LAME3.96.1ЄЄЄЄЄЄЄЄЄЄ
Language : Russian
Default : Yes
Forced : No
Audio #2
ID : 3
Format : DTS
Format/Info : Digital Theater Systems
Mode : 16
Format settings, Endianness : Big
Codec ID : A_DTS
Duration : 48mn 19s
Bit rate mode : Constant
Bit rate : 1 509 Kbps
Channel(s) : 2 channels
Channel positions : Front: L R
Sampling rate : 48.0 KHz
Bit depth : 24 bits
Compression mode : Lossy
Stream size : 522 MiB (23%)
Language : English
Default : No
Forced : No
Menu
00:00:00.000 : en:00:00:00.000
00:01:35.095 : en:00:01:35.095
00:14:29.911 : en:00:14:29.911
00:34:29.818 : en:00:34:29.818
00:47:10.745 : en:00:47:10.745



Скачать Воздушный.волк.(Небесный.волк).Airwolf.(01-03x1-55.из.55).(Дональд.П.Беллисарио).[1984-1986.боевик.BDRip].[720p].[MVO]+[Original].torrent без регистрации
Золото ЗОЛОТАЯ РАЗДАЧА! СКАЧАННОЕ НЕ ЗАСЧИТЫВАЕТСЯ! Золото
Дата: Зарегистрирован   [ Тип: внутренний ] Как тут cкачать?
MAGNET ссылка
MAGNET ссылка


Скачать .torrent

318 KB

Статус: проверено DHT
Скачан: торрент - 117 раз, раздача полностью - 0 раз
Размер: 124,54 GB
Оценка:  - (Голосов: 0)
Поблагодарили: 0
Поделиться ссылкой на эту раздачу с друзьями:
В контактеFacebookОдноклассникиTwitterLivejournalМой МирLiveinternet
 

 
Показать сообщения:    


Вы не можете начинать темы
Вы не можете отвечать на сообщения
Вы не можете редактировать свои сообщения
Вы не можете удалять свои сообщения
Вы не можете голосовать в опросах
Вы не можете прикреплять файлы к сообщениям
Вы можете скачивать файлы