Loading...
Error

Скачать Воздушный волк (Небесный волк) / Airwolf (01-03x1-55 из 55) (Дональд П. Беллисарио) [1984-1986, боевик, BDRip] [MVO]+[Original] торрент без регистрации

 
Статистика раздачи
Размер:  40,42 GB   |    Скачан:  149 раз
Сидов:  1  [  0 KB/s  ]  
 
Автор Сообщение

МихаНЕзатор

[] 

Воздушный волк (Небесный волк) / Airwolf


Год выпуска: 1984-1986
Страна: США
Жанр: Боевик, приключения
Продолжительность: 1 x ~ 01:38:08, 54 х ~ 00:50:00
Перевод: Профессиональный (многоголосый закадровый)
Режиссёр: Дональд П. Беллисарио

В ролях: Ян-Майкл Винсент, Алекс Корд, Эрнест Боргнайн, Джин Брюс Скотт, Дебора Прэтт, Лэнс ЛеГолт, Монти Джордан, Сэнди Кроунмейер, Джон Брэндон, Исмаэль ’Ист’ Карло

Описание: Засекреченное подразделение ЦРУ, известное как "Фирма", разработало новый, оснащенный современным вооружением вертолет под названием "Небесный волк". Но во время пробного полета один из создателей "Небесного волка" повернул его беспощадную огневую мощь против своих и угнал вертолет в Ливию.



Качество: BDRip
Формат: AVI
Видео кодек: XViD
Аудио кодек: MP3, AC3
Видео: 720х528 (4:3), 23.976 fps, MPEG-4 AVC 1833 kbps avg, 0.200 bit/pixel
Аудио Rus: 48 kHz, MP3, 2 ch, 128.00 kbps avg
Аудио Eng: 48 kHz, AC3, 2 ch, 192.00 kbps avg

АНОНСЫ ПОПУЛЯРНЫХ РАЗДАЧ
BDRip - Делался в 3 прохождения (программой - XviD4PSP)
По многочисленным просьбам выкладываю: 3 Сезон. 12, 14-18 эпизоды на английском языке без перевода к сожалению.
12. Полпинты / Half-Pint (English)
14. Открытие / Discovery (English)
15. День опасности / Day of Jeopardy (English)
16. Волчонок / Little Wolf (English)
17. Отчаянный понедельник / Desperate Monday (English)
18. Побег Хоука / Hawke's Run (English)
Надеюсь хоть кто нибудь субтитры сделает к этим эпизодам (или озвучку хотя бы одноголосый любительский перевод).
DVDRip - 4 Сезон: К сожалению на английском языке а субтитры только к первым 4-ём сериям есть.
Огромная благодарность за видео с платного сайта которое предоставил - qsdyg
Аудио редактирование и синхронизация - CergMark то есть я (CerGold)
Видео от - geckos
1 Сезон:
01.Тень Хоука (2 части) / Shadow of the Hawke (2 part)
02. Папа пошел на охоту / Daddy's Gone a Hunt'n
03. Укус шакала / Bite of the Jackal
04. Сквозь ночь / Proof Through the Night
05. Билет в одну сторону / One Way Express
06. Призраки прошлого / Echoes from the Past
07. Битва голубки / Fight Like a Dove
08. Безумие над Майами / Mad Over Miami
09. И это оказались мы / And They Are Us
10. Мозг машины / Mind of the Machine
11. Поймать волка в капкан / To Snare a Wolf
2 Сезон:
01. Красотка / Sweet Britches
02. Огненная буря / Firestorm
03. Призрак Моффетта / Moffett's Ghost
04. Правда о Холли / The Truth About Holly
05. Охота / The Hunted
06. Грехи прошлого / Sins of the Past
07. Падший ангел / Fallen Angel
08. Эйч Икс-1 / HX-1
09. Пропавший рейс 093 / Flight #093 Is Missing
10. Быть героем / Once a Hero
11. Случайные жертвы / Random Target
12. Обречённые / Condemned
13. Американская мечта / The American Dream
14. Гостиница у дороги / Inn at the End of the Road
15. Миллионы Сантини / Santini's Millions
16. Пленник прошлого / Prisoner of Yesterday
17. Прирождённый пилот / Natural Born
18. С небес / Out of the Sky
19. Разрушители платин / Dambreakers
20. Выходное пособие / Severance Pay
21. Извержение вулкана / Eruption
22. Близкий путь к свободе / Short Walk to Freedom
3 Сезон:
01. Рог Изобилия / The Horn of Plenty
02. Воздушный волк 2 / Airwolf II
03. Дорогу укажет ребёнок / And a Child Shall Lead
04. Предсказатель / Fortune Teller
05. Переправа / Crossover
06. Загробный мир / Kingdom Come
07. Орлы / Eagles
08. Энни Оукли / Annie Oakley
09. Дженни / Jennie
10. Смертельный круг / The Deadly Circle
11. Куда подевались все дети? / Where Have All the Children Gone?
12. Полпинты / Half-Pint (English)
13. Адский огонь / Wildfire
14. Открытие / Discovery (English)
15. День опасности / Day of Jeopardy (English)
16. Волчонок / Little Wolf (English)
17. Отчаянный понедельник / Desperate Monday (English)
18. Побег Хоука / Hawke's Run (English)
19. Вторжение в Санта-Паулу / Break-In at Santa Paula
20. Девушка, которая упала с неба / The Girl Who Fell from the Sky
21. Маршрут полёта / Tracks
22. Райские птички / Birds of Paradise
General
Complete name : D:\Downloads\Временные файлы\Воздушный волк. BDRip\2 sezon\Airwolf.s02.e14. Гостиница у дороги _ Inn at the End of the Road.avi
Format : AVI
Format/Info : Audio Video Interleave
File size : 742 MiB
Duration : 48mn 8s
Overall bit rate : 2 154 Kbps
Writing application : VirtualDubMod 1.5.10.3 (build 2550/release)
Writing library : VirtualDubMod build 2550/release
Video
ID : 0
Format : MPEG-4 Visual
Format profile : Advanced Simple@L5
Format settings, BVOP : 1
Format settings, QPel : No
Format settings, GMC : No warppoints
Format settings, Matrix : Default (MPEG)
Codec ID : XVID
Codec ID/Hint : XviD
Duration : 48mn 8s
Bit rate : 1 820 Kbps
Width : 720 pixels
Height : 528 pixels
Display aspect ratio : 4:3
Frame rate : 23.976 fps
Color space : YUV
Chroma subsampling : 4:2:0
Bit depth : 8 bits
Scan type : Progressive
Compression mode : Lossy
Bits/(Pixel*Frame) : 0.200
Stream size : 627 MiB (84%)
Writing library : XviD 73
Audio #1
ID : 1
Format : MPEG Audio
Format version : Version 1
Format profile : Layer 3
Codec ID : 55
Codec ID/Hint : MP3
Duration : 48mn 5s
Bit rate mode : Constant
Bit rate : 128 Kbps
Channel(s) : 2 channels
Sampling rate : 48.0 KHz
Compression mode : Lossy
Stream size : 44.0 MiB (6%)
Alignment : Aligned on interleaves
Interleave, duration : 42 ms (1.00 video frame)
Interleave, preload duratio : 504 ms
Writing library : LAME3.96.1
Audio #2
ID : 2
Format : AC-3
Format/Info : Audio Coding 3
Mode extension : CM (complete main)
Format settings, Endianness : Big
Codec ID : 2000
Duration : 48mn 8s
Bit rate mode : Constant
Bit rate : 192 Kbps
Channel(s) : 2 channels
Channel positions : Front: L R
Sampling rate : 48.0 KHz
Compression mode : Lossy
Stream size : 66.1 MiB (9%)
Alignment : Split accross interleaves
Interleave, duration : 42 ms (1.00 video frame)
Interleave, preload duratio : 500 ms



Скачать Воздушный.волк.(Небесный.волк).Airwolf.(01-03x1-55.из.55).(Дональд.П.Беллисарио).[1984-1986.боевик.BDRip].[MVO]+[Original].torrent без регистрации
Золото ЗОЛОТАЯ РАЗДАЧА! СКАЧАННОЕ НЕ ЗАСЧИТЫВАЕТСЯ! Золото
Дата: Зарегистрирован   [ Тип: внутренний ] Как тут cкачать?
MAGNET ссылка
MAGNET ссылка


Скачать .torrent

108 KB

Статус: проверено DHT
Скачан: торрент - 149 раз, раздача полностью - 6 раз
Размер: 40,42 GB
Оценка:  - (Голосов: 0)
Поблагодарили: 1
Поделиться ссылкой на эту раздачу с друзьями:
В контактеFacebookОдноклассникиTwitterLivejournalМой МирLiveinternet
 

 
Показать сообщения:    


Вы не можете начинать темы
Вы не можете отвечать на сообщения
Вы не можете редактировать свои сообщения
Вы не можете удалять свои сообщения
Вы не можете голосовать в опросах
Вы не можете прикреплять файлы к сообщениям
Вы можете скачивать файлы