Loading...
Error

Скачать Солнечная аллея / Sonnenallee (Леандер Хаусманн) [1999, комедия, мелодрама, BDRip AVC] [DVO]+[Оригинал] торрент без регистрации

 
Статистика раздачи
Размер:  2,07 GB   |    Скачан:  115 раз
Сидов:  1  [  0 KB/s  ]  
 
Автор Сообщение

Marsianka

[] 

Название: Солнечная аллея
Оригинальное название: Sonnenallee
Страна: Германия
Жанр: комедия, мелодрама
Продолжительность: 01:29:11
Перевод: профессиональный двухголосый

Режиссёр: Леандер Хаусманн

В ролях: Александер Шеер, Александр Байер, Катарина Тальбах, Тереза Вайсбах, Детлев Бук, Хенри Хюбхен, Игнац Кирхнер, Роберт Штадлобер, Анника Кул, Елена Майснер

Описание: ГДР 70-х годов. Миха и его друзья живут возле разделяющей город Берлинской стены на восточной стороне Солнечной аллеи, той самой улицы, которая начинается в Западном, а заканчивается в Восточном Берлине. На востоке — участковые, агенты «штази» и партийные лозунги, на западе — бананы, порножурналы, диски «Rolling Stones» и нейлоновые колготки. Но Миху и его друзей не интересуют принципиальные разногласия между «пролетарским» востоком и «буржуазным» западом. Их волнуют лишь рок-музыка, выпивка и девчонки, особенно Мириам — несравненная и недоступная, способная одним своим появлением остановить уличное движение. Ради неё Миха готов на всё...



Качество: BDRip AVC Сравнение с исходником
Формат: MKV
Видео: MPEG-4 AVC, 2870 Кбит/с, 1024x576, 23,976 кадра/с
Аудио 1: русский, AC3, 192 kbps, 2 ch, 48 kHz [профессиональный двухголосый, по заказу "Екатеринбург Арт"]
Аудио 2: немецкий, AC3, 192 kbps, 2 ch, 48 kHz [оригинал]
frame I:1082 Avg QP:21.60 size: 84140
frame P:24455 Avg QP:22.94 size: 30007
frame B:102750 Avg QP:25.35 size: 11070

Общее
Уникальный идентификатор : 197131721728846426466479383602571886106 (0x944E304736742ECC9D19CFCDF6B9BE1A)
Полное имя : D:VideoСолнечная аллея.1999.BDRip.AVC.mkv
Формат : Matroska
Версия формата : Version 4 / Version 2
Размер файла : 2,07 Гбайт
Продолжительность : 1 ч. 29 м.
Общий поток : 3320 Кбит/сек
Название фильма : BDRip -- STarankov
Дата кодирования : UTC 2015-05-15 11:02:53
Программа кодирования : mkvmerge v7.9.0 ('Birds') 64bit
Библиотека кодирования : libebml v1.3.1 + libmatroska v1.4.2
_STATISTICS_WRITING_APP : mkvmerge v7.9.0 ('Birds') 64bit
_STATISTICS_WRITING_DATE_UTC : 2015-05-15 11:02:53
_STATISTICS_TAGS : BPS DURATION NUMBER_OF_FRAMES NUMBER_OF_BYTES
DURATION : 01:29:10.624000000
NUMBER_OF_FRAMES : 167207
NUMBER_OF_BYTES : 128414976

Видео
Идентификатор : 1
Формат : AVC
Формат/Информация : Advanced Video Codec
Профиль формата : High@L4.1
Параметр CABAC формата : Да
Параметр ReFrames формата : 9 кадров
Идентификатор кодека : V_MPEG4/ISO/AVC
Продолжительность : 1 ч. 29 м.
Битрейт : 2870 Кбит/сек
Ширина : 1024 пикселя
Высота : 576 пикселей
Соотношение сторон : 16:9
Режим частоты кадров : Постоянный
Частота кадров : 23,976 кадра/сек
Цветовое пространство : YUV
Субдискретизация насыщенности : 4:2:0
Битовая глубина : 8 бит
Тип развёртки : Прогрессивная
Бит/(Пиксели*Кадры) : 0.203
Размер потока : 1,79 Гбайт (86%)
Библиотека кодирования : x264 core 146 r2538 121396c
Настройки программы : cabac=1 / ref=9 / deblock=1:-1:-1 / analyse=0x3:0x113 / me=umh / subme=10 / psy=1 / psy_rd=1.00:0.15 / mixed_ref=1 / me_range=32 / chroma_me=1 / trellis=2 / 8x8dct=1 / cqm=0 / deadzone=21,11 / fast_pskip=1 / chroma_qp_offset=-3 / threads=6 / lookahead_threads=1 / sliced_threads=0 / nr=0 / decimate=1 / interlaced=0 / bluray_compat=0 / constrained_intra=0 / bframes=11 / b_pyramid=2 / b_adapt=2 / b_bias=0 / direct=1 / weightb=1 / open_gop=0 / weightp=2 / keyint=230 / keyint_min=23 / scenecut=40 / intra_refresh=0 / rc_lookahead=40 / rc=crf / mbtree=0 / crf=21.0 / qcomp=0.60 / qpmin=0 / qpmax=69 / qpstep=4 / vbv_maxrate=40000 / vbv_bufsize=50000 / crf_max=0.0 / nal_hrd=none / filler=0 / ip_ratio=1.40 / pb_ratio=1.30 / aq=1:1.00
Язык : German
Default : Да
Forced : Нет
DURATION : 01:29:10.637000000
NUMBER_OF_FRAMES : 128287
NUMBER_OF_BYTES : 1962342047
_STATISTICS_WRITING_APP : mkvmerge v7.9.0 ('Birds') 64bit
_STATISTICS_WRITING_DATE_UTC : 2015-05-15 11:02:53
_STATISTICS_TAGS : BPS DURATION NUMBER_OF_FRAMES NUMBER_OF_BYTES

Аудио #1
Идентификатор : 2
Формат : AC-3
Формат/Информация : Audio Coding 3
Расширение режима : CM (complete main)
Параметр Endianness формата : Big
Идентификатор кодека : A_AC3
Продолжительность : 1 ч. 29 м.
Вид битрейта : Постоянный
Битрейт : 192 Кбит/сек
Каналы : 2 канала
Расположение каналов : Front: L R
Частота : 48,0 КГц
Битовая глубина : 16 бит
Метод сжатия : С потерями
Размер потока : 122 Мбайт (6%)
Заголовок : DVO (по заказу "Екатеринбург Арт")
Язык : Russian
Default : Да
Forced : Нет

Аудио #2
Идентификатор : 3
Формат : AC-3
Формат/Информация : Audio Coding 3
Расширение режима : CM (complete main)
Параметр Endianness формата : Big
Идентификатор кодека : A_AC3
Продолжительность : 1 ч. 29 м.
Вид битрейта : Постоянный
Битрейт : 192 Кбит/сек
Каналы : 2 канала
Расположение каналов : Front: L R
Частота : 48,0 КГц
Битовая глубина : 16 бит
Метод сжатия : С потерями
Размер потока : 122 Мбайт (6%)
Заголовок : Original
Язык : German
Default : Нет
Forced : Нет



Скачать Солнечная.аллея.Sonnenallee.(Леандер.Хаусманн).[1999.комедия.мелодрама.BDRip.AVC].[DVO]+[Оригинал].torrent без регистрации
Золото ЗОЛОТАЯ РАЗДАЧА! СКАЧАННОЕ НЕ ЗАСЧИТЫВАЕТСЯ! Золото
Дата: Зарегистрирован   [ Тип: внутренний ] Как тут cкачать?
MAGNET ссылка
MAGNET ссылка


Скачать .torrent

11 KB

Статус: проверено DHT
Скачан: торрент - 115 раз, раздача полностью - 0 раз
Размер: 2,07 GB
Оценка:  - (Голосов: 0)
Поблагодарили: 2
Поделиться ссылкой на эту раздачу с друзьями:
В контактеFacebookОдноклассникиTwitterLivejournalМой МирLiveinternet
 

 
Показать сообщения:    


Вы не можете начинать темы
Вы не можете отвечать на сообщения
Вы не можете редактировать свои сообщения
Вы не можете удалять свои сообщения
Вы не можете голосовать в опросах
Вы не можете прикреплять файлы к сообщениям
Вы можете скачивать файлы