Loading...
Error

Скачать У Мини это в первый раз / Mini's First Time (Ник Гати) [2006, драма, комедия, криминал, BDRip-AVC] [MVO]+[Оригинал] торрент без регистрации

 
Статистика раздачи
Размер:  1,45 GB   |    Скачан:  121 раз

Полного источника не было: 24 минуты

 
Автор Сообщение

Marsianka

[] 

У Мини это в первый раз / Mini's First Time (2006) BDRip-AVC

Жанр: драма, комедия, криминал
Страна: США
Режиссер: Ник Гати
В ролях: Алек Болдуин, Никки Рид, Кэрри-Энн Мосс, Джефф Голдблюм, Люк Уилсон, Светлана Меткина, Спрэг Грэйден, Арти Бакстер, Рик Фокс, Майкл Ласкин

Сюжет фильма: 18-летняя бунтарка, красотка и интриганка Мини — решает поступить на работу в службу эскорта, клиентом которой является ее отчим. Отчаянно пытаясь освободиться из-под контроля своей матери-алкоголички Дайан, она соблазняет своего отчима Мартина и убеждает его принять участие в ее плане объявить Дайан невменяемой. Но вскоре их тайный сговор приводит к убийству, и когда молодой детектив Джон Гарсон начинает расследование дела, Мини и Мартину ничего не остается, как начать обвинять друг друга…

Мировая премьера: 1 мая 2006
Российская премьера: 9 августа 2007, «Top Film Distribution»



Продолжительность: 01:28:02
Качество видео: BDRip-AVC
Видео: кодек: x264, размер кадра: 1024x554, битрейт: 1778 кб/с, bit/pixel: 0.125
Аудио #1: язык: Русский , перевод: профессиональный, многоголосый закадровый, кодек: AC3 5.1, битрейт: 384.00 кб/с
Аудио #2: язык: Английский , перевод: оригинал, кодек: AC3 2.0, битрейт: 192.00 кб/с
Общее
Уникальный идентификатор : 243931155720542256335438451072799778260 (0xB7836E8503561FDB93D334AE477AA5D4)
Полное имя : D:Mini's First Time.2006.BDRip-AVC.PT.mkv
Формат : Matroska
Версия формата : Version 2
Размер файла : 1,45 Гбайт
Продолжительность : 1 ч. 28 м.
Общий поток : 2353 Кбит/сек
Название фильма : У Мини это в первый раз / Mini's First Time (2006) BDRip-AVC rip by rulya74
Дата кодирования : UTC 2012-07-27 03:51:50
Программа кодирования : mkvmerge v5.7.0 ('The Whirlwind') built on Jul 8 2012 20:08:51
Библиотека кодирования : libebml v1.2.3 + libmatroska v1.3.0

Видео
Идентификатор : 1
Формат : AVC
Формат/Информация : Advanced Video Codec
Профиль формата : High@L4.1
Параметр CABAC формата : Да
Параметр ReFrames формата : 9 кадров
Идентификатор кодека : V_MPEG4/ISO/AVC
Продолжительность : 1 ч. 28 м.
Битрейт : 1778 Кбит/сек
Ширина : 1024 пикселя
Высота : 554 пикселя
Соотношение сторон : 16:9
Частота кадров : 25,000 кадров/сек
Цветовое пространство : YUV
Субдискретизация насыщенности : 4:2:0
Битовая глубина : 8 бит
Тип развёртки : Прогрессивная
Бит/(Пиксели*Кадры) : 0.125
Размер потока : 1,06 Гбайт (74%)
Библиотека кодирования : x264 core 125 r2200 999b753
Настройки программы : cabac=1 / ref=9 / deblock=1:-3:-2 / analyse=0x3:0x113 / me=umh / subme=9 / psy=1 / psy_rd=1.00:0.00 / mixed_ref=1 / me_range=32 / chroma_me=1 / trellis=2 / 8x8dct=1 / cqm=0 / deadzone=21,11 / fast_pskip=1 / chroma_qp_offset=-2 / threads=12 / lookahead_threads=2 / sliced_threads=0 / nr=0 / decimate=1 / interlaced=0 / bluray_compat=0 / constrained_intra=0 / bframes=9 / b_pyramid=2 / b_adapt=1 / b_bias=0 / direct=3 / weightb=1 / open_gop=0 / weightp=2 / keyint=250 / keyint_min=25 / scenecut=40 / intra_refresh=0 / rc=2pass / mbtree=0 / bitrate=1778 / ratetol=1.0 / qcomp=0.60 / qpmin=10 / qpmax=51 / qpstep=4 / cplxblur=20.0 / qblur=0.5 / ip_ratio=1.40 / pb_ratio=1.30 / aq=1:1.00
Default : Да
Forced : Нет

Аудио #1
Идентификатор : 2
Формат : AC-3
Формат/Информация : Audio Coding 3
Расширение режима : CM (complete main)
Идентификатор кодека : A_AC3
Продолжительность : 1 ч. 28 м.
Вид битрейта : Постоянный
Битрейт : 384 Кбит/сек
Каналы : 6 каналов
Расположение каналов : Front: L C R, Side: L R, LFE
Частота : 48,0 КГц
Битовая глубина : 16 бит
Метод сжатия : С потерями
Размер потока : 242 Мбайт (16%)
Заголовок : Многоголосый закадровый (Новый диск)
Язык : Russian
Default : Да
Forced : Нет

Аудио #2
Идентификатор : 3
Формат : AC-3
Формат/Информация : Audio Coding 3
Расширение режима : CM (complete main)
Идентификатор кодека : A_AC3
Продолжительность : 1 ч. 28 м.
Вид битрейта : Постоянный
Битрейт : 192 Кбит/сек
Каналы : 2 канала
Расположение каналов : Front: L R
Частота : 48,0 КГц
Битовая глубина : 16 бит
Метод сжатия : С потерями
Размер потока : 121 Мбайт (8%)
Заголовок : Оригинал
Язык : English
Default : Нет
Forced : Нет



Скачать У.Мини.это.в.первый.раз.Mini's.First.Time.(Ник.Гати).[2006.драма.комедия.криминал.BDRip-AVC].[MVO]+[Оригинал].torrent без регистрации
Золото ЗОЛОТАЯ РАЗДАЧА! СКАЧАННОЕ НЕ ЗАСЧИТЫВАЕТСЯ! Золото
Дата: Зарегистрирован   [ Тип: внутренний ] Как тут cкачать?
MAGNET ссылка
MAGNET ссылка


Скачать .torrent

15 KB

Статус: проверено DHT
Скачан: торрент - 121 раз, раздача полностью - 0 раз
Размер: 1,45 GB
Оценка:  - (Голосов: 0)
Поблагодарили: 2
Поделиться ссылкой на эту раздачу с друзьями:
В контактеFacebookОдноклассникиTwitterLivejournalМой МирLiveinternet
 

 
Показать сообщения:    


Вы не можете начинать темы
Вы не можете отвечать на сообщения
Вы не можете редактировать свои сообщения
Вы не можете удалять свои сообщения
Вы не можете голосовать в опросах
Вы не можете прикреплять файлы к сообщениям
Вы можете скачивать файлы