Loading...
Error

Скачать Всего одна ночь / Just One Night (Алан Джейкобс / Alan Jacobs) [1999, комедия, DVDRip-AVC] [DVO] (Екатеринбург Арт) + [Orig] Eng торрент без регистрации

 
Статистика раздачи
Размер:  1,12 GB   |    Скачан:  106 раз
Сидов:  1  [  0 KB/s  ]  
 
Автор Сообщение

leon030982

[] 

Всего одна ночь / Just One Night


Год выпуска: 1999
Страна: США
Жанр: комедия
Продолжительность: 01:32:08
Перевод: Профессиональный (двухголосый, закадровый) [Екатеринбург Арт]
Cубтитры: нет
Оригинальная аудиодорожка: английский

Режиссер: Алан Джейкобс / Alan Jacobs

В ролях: Тимоти Хаттон, Мария Грация Кучинотта, Удо Кир, Натали Шоу, Майкл О’Киф, Роберт Истон, Дон Новелло, Сеймур Кэссел, Роланд Т. Абасоло, Тил Арнс

Описание: По дороге на свою собственную свадьбу профессор физики Айзек Балтер остановился на 24 часа в Сан-Франциско.
Всего лишь за одну ночь он успел влюбиться в красавицу Аврору познакомиться с ее наглым и высокомерным мужем Вальтером, студенткой и по совместительству «ночной бабочкой» Тэли, добросердечным секс-гигантом Артуром, выпутаться из множества нелепейших недоразумений и открыть для себя очарование ночного Сан-Франциско. Но наутро Айзек должен сделать нелегкий выбор: остаться с женщиной своей мечты или оставить в сердце лишь воспоминания об этой безумной ночи.

Сэмпл


Качество видео: DVDRip-AVC
Формат видео: MKV
Видео кодек: AVC
Аудио кодек: AC3
Видео: 720x480 (4:3) @ 640x480, 24.456 fps, AVC, ~1100 Kbps, 0.130 bits/pixel
Аудио 1: Russian, 48.0 KHz, AC3, 2 ch, 192 Kbps - Екатеринбург Арт
Аудио 2: English, 48.0 KHz, AC3, 6 ch, 448 Kbps

Цитата:

За оцифровку VHS от "Екатеринбург Арт" спасибо [b]Fikaloid.[/b]
General
Unique ID : 188441760197743703011234861824250304973 (0x8DC490187F1C62C19D26D9A10F6959CD)
Complete name : C:\Just One Night.mkv
Format : Matroska
Format version : Version 4 / Version 2
File size : 1.12 GiB
Duration : 1h 32mn
Overall bit rate : 1 742 Kbps
Encoded date : UTC 2015-05-20 08:26:23
Writing application : mkvmerge v7.9.0 ('Birds') 64bit
Writing library : libebml v1.3.1 + libmatroska v1.4.2
DURATION : 01:32:07.808000000
NUMBER_OF_FRAMES : 172744
NUMBER_OF_BYTES : 132667392
_STATISTICS_WRITING_APP : mkvmerge v7.9.0 ('Birds') 64bit
_STATISTICS_WRITING_DATE_UT : 2015-05-20 08:26:23
_STATISTICS_TAGS : BPS DURATION NUMBER_OF_FRAMES NUMBER_OF_BYTES
Video
ID : 1
Format : AVC
Format/Info : Advanced Video Codec
Format profile : High@L3.1
Format settings, CABAC : Yes
Format settings, ReFrames : 8 frames
Codec ID : V_MPEG4/ISO/AVC
Bit rate : 1 100 Kbps
Width : 720 pixels
Height : 480 pixels
Display aspect ratio : 4:3
Frame rate mode : Variable
Standard : NTSC
Color space : YUV
Chroma subsampling : 4:2:0
Bit depth : 8 bits
Scan type : Progressive
Writing library : x264 core 114
Encoding settings : cabac=1 / ref=8 / deblock=1:0:0 / analyse=0x3:0x113 / me=esa / subme=7 / psy=1 / psy_rd=1.00:0.00 / mixed_ref=1 / me_range=20 / chroma_me=1 / trellis=1 / 8x8dct=1 / cqm=0 / deadzone=21,11 / fast_pskip=1 / chroma_qp_offset=-2 / threads=9 / sliced_threads=0 / nr=0 / decimate=1 / interlaced=0 / constrained_intra=0 / bframes=16 / b_pyramid=2 / b_adapt=2 / b_bias=0 / direct=1 / weightb=1 / open_gop=0 / weightp=2 / keyint=240 / keyint_min=24 / scenecut=40 / intra_refresh=0 / rc_lookahead=50 / rc=2pass / mbtree=1 / bitrate=1100 / ratetol=1.0 / qcomp=0.60 / qpmin=3 / qpmax=69 / qpstep=4 / cplxblur=20.0 / qblur=0.5 / ip_ratio=1.40 / aq=1:1.00
Language : English
Default : Yes
Forced : No
Color primaries : BT.601 NTSC
Transfer characteristics : BT.709
Matrix coefficients : BT.601
Color range : Limited
Audio #1
ID : 2
Format : AC-3
Format/Info : Audio Coding 3
Mode extension : CM (complete main)
Format settings, Endianness : Big
Codec ID : A_AC3
Duration : 1h 32mn
Bit rate mode : Constant
Bit rate : 192 Kbps
Channel(s) : 2 channels
Channel positions : Front: L R
Sampling rate : 48.0 KHz
Bit depth : 16 bits
Compression mode : Lossy
Stream size : 127 MiB (11%)
Title : Екатеринбург Арт
Language : Russian
Default : Yes
Forced : No
Audio #2
ID : 3
Format : AC-3
Format/Info : Audio Coding 3
Mode extension : CM (complete main)
Format settings, Endianness : Big
Codec ID : A_AC3
Duration : 1h 32mn
Bit rate mode : Constant
Bit rate : 448 Kbps
Channel(s) : 6 channels
Channel positions : Front: L C R, Side: L R, LFE
Sampling rate : 48.0 KHz
Bit depth : 16 bits
Compression mode : Lossy
Stream size : 295 MiB (26%)
Language : English
Default : No
Forced : No
Menu
00:00:00.000 : en:Chapter 1
00:05:31.114 : en:Chapter 2
00:14:24.196 : en:Chapter 3
00:22:03.388 : en:Chapter 4
00:28:52.981 : en:Chapter 5
00:34:38.743 : en:Chapter 6
00:39:55.276 : en:Chapter 7
00:46:20.928 : en:Chapter 8
00:50:39.069 : en:Chapter 9
01:00:57.020 : en:Chapter 10
01:12:37.453 : en:Chapter 11
01:27:28.426 : en:Chapter 12



Скачать Всего.одна.ночь.Just.One.Night.(Алан.Джейкобс.Alan.Jacobs).[1999.комедия.DVDRip-AVC].[DVO].(Екатеринбург.Арт).+.[Orig].Eng.torrent без регистрации
Золото ЗОЛОТАЯ РАЗДАЧА! СКАЧАННОЕ НЕ ЗАСЧИТЫВАЕТСЯ! Золото
Дата: Зарегистрирован   [ Тип: внутренний ] Как тут cкачать?
MAGNET ссылка
MAGNET ссылка


Скачать .torrent

12 KB

Статус: проверено DHT
Скачан: торрент - 106 раз, раздача полностью - 1 раз
Размер: 1,12 GB
Оценка:  - (Голосов: 0)
Поблагодарили: 3
Поделиться ссылкой на эту раздачу с друзьями:
В контактеFacebookОдноклассникиTwitterLivejournalМой МирLiveinternet
 

 
Показать сообщения:    


Вы не можете начинать темы
Вы не можете отвечать на сообщения
Вы не можете редактировать свои сообщения
Вы не можете удалять свои сообщения
Вы не можете голосовать в опросах
Вы не можете прикреплять файлы к сообщениям
Вы можете скачивать файлы