Loading...
Error

Скачать Остров на вершине мира / The Island at the Top of the World (Роберт Стивенсон) [1974, фантастика, фэнтези, приключения, семейный, DVDRip-AVC] [VO]+[Оригинал]+[Sub]x3 торрент без регистрации

 
Статистика раздачи
Размер:  1,45 GB   |    Скачан:  94 раза
Сидов:  1  [  0 KB/s  ]  
 
Автор Сообщение

Marsianka

[] 

Страна: США
Жанр: фантастика, фэнтези, приключения, семейный
Год выпуска: 1974
Продолжительность: 01:29:56
Перевод: Любительский ( Александр Райдер ) + Оригинальный
Субтитры: русские, английские, английские (SDH).
Режиссер: Роберт Стивенсон / Robert Stevenson
В ролях: Дэвид Хартман (Prof. Ivarsson), Дональд Синден (Sir Anthony Ross), Жак Марен (Captain Brieux), Мако (Oomiak), Дэвид Гвиллим (Donald Ross), Agneta Eckemyr (Freyja), Гуннар Ёлунд (The Godi), Лассе Кольстад (Erik), Erik Silju (Torvald), Rolf Søder (The Lawspeaker), Торстен Валунд (Sven), Сверре Анкер Оусдаль (Gunnar)
Описание: Лондон 1907 год. Британский аристократ сэр Энтони Росс спешно организует экспедицию в Арктику в поисках своего потерянного сына Дональда. Сэр Энтони с друзьями на дирижабле отправляются в путь. Они достигают Арктики, но вдруг обнаруживают неизвестный остров, где обитает, отрезанная от остального мира на протяжении веков, цивилизации викингов. И викинги, конечно же, захватывают путешественников в плен...

MPAA: G - Нет возрастных ограничений
Семпл
Качество: DVDRip ( DVD5 (Custom) | dvdbox )
Контейнер: MKV

Видео: AVC, 712x552 @ 1012x552 (16:9), 1919 kbps, 25 fps, 0,195 bpp
Аудио №1: русский / AC3 / 2.0 / 48 kHz / 192 kbps
Аудио №2: английский / AC3 / 2.0 / 48 kHz / 192 kbps
Навигация по главам: есть


Format : Matroska
Format version : Version 2
File size : 1.45 GiB
Duration : 1h 29mn
Overall bit rate : 2 305 Kbps
Movie name : = Остров на вершине мира / The Island at the Top of the World DVDRip by SC Kosmos =
Encoded date : UTC 2015-05-17 11:03:18
Writing application : mkvmerge v3.3.0 ('Language') gebaut am Mar 24 2010 14:59:24
Writing library : libebml v0.8.0 + libmatroska v0.9.0

Video
ID : 1
Format : AVC
Format/Info : Advanced Video Codec
Format profile : High@L4.1
Format settings, CABAC : Yes
Format settings, ReFrames : 8 frames
Codec ID : V_MPEG4/ISO/AVC
Duration : 1h 29mn
Bit rate : 1 919 Kbps
Width : 712 pixels
Height : 552 pixels
Display aspect ratio : 16:9
Original display aspect ratio : 16:9
Frame rate : 25.000 fps
Color space : YUV
Chroma subsampling : 4:2:0
Bit depth : 8 bits
Scan type : Progressive
Bits/(Pixel*Frame) : 0.195
Stream size : 1.18 GiB (81%)
Title : Остров на вершине мира / The Island at the Top of the World DVDRip by SC Kosmos
Writing library : x264 core 146 r2538 121396c
Encoding settings : cabac=1 / ref=8 / deblock=1:-1:-1 / analyse=0x3:0x113 / me=umh / subme=11 / psy=1 / psy_rd=1.00:0.10 / mixed_ref=1 / me_range=32 / chroma_me=1 / trellis=2 / 8x8dct=1 / cqm=0 / deadzone=21,11 / fast_pskip=1 / chroma_qp_offset=-3 / threads=12 / lookahead_threads=2 / sliced_threads=0 / nr=0 / decimate=1 / interlaced=0 / bluray_compat=0 / constrained_intra=0 / bframes=8 / b_pyramid=2 / b_adapt=2 / b_bias=0 / direct=3 / weightb=1 / open_gop=0 / weightp=2 / keyint=250 / keyint_min=25 / scenecut=40 / intra_refresh=0 / rc_lookahead=50 / rc=2pass / mbtree=0 / bitrate=1919 / ratetol=1.0 / qcomp=0.60 / qpmin=0 / qpmax=69 / qpstep=4 / cplxblur=20.0 / qblur=0.5 / vbv_maxrate=62500 / vbv_bufsize=78125 / nal_hrd=none / filler=0 / ip_ratio=1.40 / pb_ratio=1.30 / aq=1:1.00
Language : English
Default : No
Forced : No

Audio #1
ID : 2
Format : AC-3
Format/Info : Audio Coding 3
Mode extension : CM (complete main)
Codec ID : A_AC3
Duration : 1h 29mn
Bit rate mode : Constant
Bit rate : 192 Kbps
Channel(s) : 2 channels
Channel positions : Front: L R
Sampling rate : 48.0 KHz
Bit depth : 16 bits
Compression mode : Lossy
Stream size : 124 MiB (8%)
Title : VO ( Александр Райдер )
Language : Russian
Default : Yes
Forced : No

Audio #2
ID : 3
Format : AC-3
Format/Info : Audio Coding 3
Mode extension : CM (complete main)
Codec ID : A_AC3
Duration : 1h 29mn
Bit rate mode : Constant
Bit rate : 192 Kbps
Channel(s) : 2 channels
Channel positions : Front: L R
Sampling rate : 48.0 KHz
Bit depth : 16 bits
Compression mode : Lossy
Stream size : 124 MiB (8%)
Language : English
Default : No
Forced : No

Text #1
ID : 4
Format : UTF-8
Codec ID : S_TEXT/UTF8
Codec ID/Info : UTF-8 Plain Text
Language : Russian
Default : No
Forced : No

Text #2
ID : 5
Format : UTF-8
Codec ID : S_TEXT/UTF8
Codec ID/Info : UTF-8 Plain Text
Language : English
Default : No
Forced : No

Text #3
ID : 6
Format : UTF-8
Codec ID : S_TEXT/UTF8
Codec ID/Info : UTF-8 Plain Text
Title : SDH
Language : English
Default : No
Forced : No

Menu
00:00:00.000 : en:Chapter 01
00:08:15.760 : en:Chapter 02
00:18:54.040 : en:Chapter 03
00:22:40.400 : en:Chapter 04
00:28:04.120 : en:Chapter 05
00:38:29.600 : en:Chapter 06
00:45:50.080 : en:Chapter 07
00:53:04.520 : en:Chapter 08
00:58:00.400 : en:Chapter 09
01:07:14.200 : en:Chapter 10
01:21:30.080 : en:Chapter 11
01:29:47.280 : en:Chapter 12
01:29:56.200 : en:Chapter 13


Огромное СПАСИБО: dvdbox, skyoleg, Александр Райдер.



Скачать Остров.на.вершине.мира.The.Island.at.the.Top.of.the.World.(Роберт.Стивенсон).[1974.фантастика.фэнтези.приключения.семейный.DVDRip-AVC].[VO]+[Оригинал]+[Sub]x3.torrent без регистрации
Золото ЗОЛОТАЯ РАЗДАЧА! СКАЧАННОЕ НЕ ЗАСЧИТЫВАЕТСЯ! Золото
Дата: Зарегистрирован   [ Тип: внутренний ] Как тут cкачать?
MAGNET ссылка
MAGNET ссылка


Скачать .torrent

15 KB

Статус: проверено DHT
Скачан: торрент - 94 раз, раздача полностью - 3 раз
Размер: 1,45 GB
Оценка:  5 (Голосов: 1)
Поблагодарили: 3
Поделиться ссылкой на эту раздачу с друзьями:
В контактеFacebookОдноклассникиTwitterLivejournalМой МирLiveinternet
 

 
Показать сообщения:    


Вы не можете начинать темы
Вы не можете отвечать на сообщения
Вы не можете редактировать свои сообщения
Вы не можете удалять свои сообщения
Вы не можете голосовать в опросах
Вы не можете прикреплять файлы к сообщениям
Вы можете скачивать файлы