Loading...
Error

Скачать Барри Линдон / Barry Lyndon (Стэнли Кубрик) [1975, драма, приключения, военный, история, BDRip-AVC] [MVO]+[AVO (Кузнецов)]+[Sub]x2 торрент без регистрации

 
Статистика раздачи
Размер:  5,6 GB   |    Скачан:  103 раза

Полного источника не было: 29 минут

 
Автор Сообщение

Marsianka

[] 

Информация о фильме
Название: Барри Линдон
Оригинальное название: Barry Lyndon
Год выхода: 1975
Жанр: драма, приключения, военный, история
Режиссер: Стэнли Кубрик
В ролях: Райан О’Нил, Мариса Беренсон, Патрик Мэги, Харди Крюгер, Стивен Беркофф, Гэй Хэмилтон, Мари Кин, Диана Кернер, Мюррэй Мелвин, Фрэнк Миддлмэсс, Андре Морелл, Артур О’Салливан, Годфри Куигли, Леонард Росситер, Филип Стоун, Леон Виталий, Джон Биндон, Роджер Бут, Билли Бойл, Джонатан Сесил, Питер Селлиер, Джеффри Чэтер, Энтони Доуз, Патрик Даусон, Бернард Хептон

О фильме: История жизни простого ирландского парня Редмонда Барри. Будучи еще совсем молодым, он убил на дуэли офицера английской армии. Чтобы не попасть в руки полиции, ему пришлось покинуть родной дом и отправиться странствовать по Ирландии. Но странствия его были недолгими. Отдав грабителям все деньги, коня и оружие, он вынужден был записаться в ряды английской армии. Попав на войну и насмотревшись всех ее ужасов, он решает дезертировать. Украв офицерскую форму, Барри отправляется в расположение союзников, надеясь оттуда тайком перебраться в Ирландию. Но и здесь его ожидает неудача: его разоблачает капитан прусской армии, заставляя вступить в ее ряды. По окончании войны Барри смог, наконец, вернуться в свою страну. Экранизация произведения Уильяма Мейкписа Теккерея ”Карьера Барри Линдона”.



Страна: Великобритания, США, Ирландия
Студия: Metro-Goldwyn-Mayer (MGM), Stanley Kubrick Productions
Продолжительность: 03:05:03
Перевод: Профессиональный многоголосый, авторский одноголосый (Кузнецов)

Файл
Кодек: MPEG-4 AVC
Качество: BDRip-AVC
Видео: 3500 Кбит/с, 1024x576, 23.976 кадр/с

Аудио #1: Русский (AC3, 2 ch, 192 Кбит/с) / Профессиональный многоголосый (НТВ)
Аудио #2: Русский (AC3, 2 ch, 192 Кбит/с) / Авторский одноголосый (Кузнецов)
Аудио #3: Английский (AC3, 6 ch, 448 Кбит/с)
Субтитры: Русские, английские
Семпл
Общее
Уникальный идентификатор : 209939200211926811966125566999320319928 (0x9DF0D1B854325678ADCBA4C6C437D7B8)
Полное имя : D:Мои РипыBarri.Lindon.1975.x264.BDRip.AVC.MediaClub.mkv
Формат : Matroska
Версия формата : Version 4 / Version 2
Размер файла : 5,60 Гбайт
Продолжительность : 3 ч. 5 м.
Общий поток : 4334 Кбит/сек
Название фильма : = MediaClub = rip by krakatuq
Дата кодирования : UTC 2015-05-23 08:25:34
Программа кодирования : mkvmerge v6.6.0 ('The Edge Of The In Between') built on Dec 1 2013 17:55:00
Библиотека кодирования : libebml v1.3.0 + libmatroska v1.4.1

Видео
Идентификатор : 1
Формат : AVC
Формат/Информация : Advanced Video Codec
Профиль формата : High@L4.1
Параметр CABAC формата : Да
Параметр ReFrames формата : 9 кадров
Идентификатор кодека : V_MPEG4/ISO/AVC
Продолжительность : 3 ч. 5 м.
Битрейт : 3500 Кбит/сек
Ширина : 1024 пикселя
Высота : 576 пикселей
Соотношение сторон : 16:9
Режим частоты кадров : Постоянный
Частота кадров : 23,976 кадра/сек
Цветовое пространство : YUV
Субдискретизация насыщенности : 4:2:0
Битовая глубина : 8 бит
Тип развёртки : Прогрессивная
Бит/(Пиксели*Кадры) : 0.247
Размер потока : 4,41 Гбайт (79%)
Заголовок : Barri.Lindon.1975.x264.BDRip.AVC.MediaClub
Библиотека кодирования : x264 core 142 r2409+42 04be48a tMod [8-bit@4:2:0 X86]
Настройки программы : cabac=1 / ref=9 / deblock=1:-2:-2 / analyse=0x3:0x133 / me=umh / subme=11 / psy=1 / fade_compensate=0.00 / psy_rd=1.00:0.10 / mixed_ref=1 / me_range=32 / chroma_me=1 / trellis=2 / 8x8dct=1 / cqm=0 / deadzone=21,11 / fast_pskip=0 / chroma_qp_offset=-3 / threads=3 / lookahead_threads=1 / sliced_threads=0 / nr=0 / decimate=0 / interlaced=0 / bluray_compat=0 / constrained_intra=0 / fgo=0 / bframes=9 / b_pyramid=2 / b_adapt=2 / b_bias=0 / direct=3 / weightb=1 / open_gop=0 / weightp=2 / keyint=240 / keyint_min=23 / scenecut=40 / intra_refresh=0 / rc=2pass / mbtree=0 / bitrate=3500 / ratetol=1.0 / qcomp=0.60 / qpmin=0:0:0 / qpmax=69:69:69 / qpstep=4 / cplxblur=20.0 / qblur=0.5 / ip_ratio=1.40 / pb_ratio=1.30 / aq=1:1.00 / aq-sensitivity=10.00 / aq-factor=1.00:1.00:1.00 / aq2=0 / aq3=0
Язык : English
Default : Да
Forced : Нет

Аудио #1
Идентификатор : 2
Формат : AC-3
Формат/Информация : Audio Coding 3
Расширение режима : CM (complete main)
Параметр Endianness формата : Big
Идентификатор кодека : A_AC3
Продолжительность : 3 ч. 5 м.
Вид битрейта : Постоянный
Битрейт : 192 Кбит/сек
Каналы : 2 канала
Расположение каналов : Front: L R
Частота : 48,0 КГц
Битовая глубина : 16 бит
Метод сжатия : С потерями
Размер потока : 254 Мбайт (4%)
Заголовок : TRACK_01_MVO_RUS_НТВ
Язык : Russian
Default : Да
Forced : Да

Аудио #2
Идентификатор : 3
Формат : AC-3
Формат/Информация : Audio Coding 3
Расширение режима : CM (complete main)
Параметр Endianness формата : Big
Идентификатор кодека : A_AC3
Продолжительность : 3 ч. 5 м.
Вид битрейта : Постоянный
Битрейт : 192 Кбит/сек
Каналы : 2 канала
Расположение каналов : Front: L R
Частота : 48,0 КГц
Битовая глубина : 16 бит
Метод сжатия : С потерями
Размер потока : 254 Мбайт (4%)
Заголовок : TRACK_02_AVO_RUS_KUZNECOV
Язык : Russian
Default : Нет
Forced : Нет

Аудио #3
Идентификатор : 4
Формат : AC-3
Формат/Информация : Audio Coding 3
Расширение режима : CM (complete main)
Параметр Endianness формата : Big
Идентификатор кодека : A_AC3
Продолжительность : 3 ч. 5 м.
Вид битрейта : Постоянный
Битрейт : 448 Кбит/сек
Каналы : 6 каналов
Расположение каналов : Front: L C R, Side: L R, LFE
Частота : 48,0 КГц
Битовая глубина : 16 бит
Метод сжатия : С потерями
Размер потока : 593 Мбайт (10%)
Заголовок : TRACK_03_ORIGINAL_ENG
Язык : English
Default : Нет
Forced : Нет

Текст #1
Идентификатор : 5
Формат : UTF-8
Идентификатор кодека : S_TEXT/UTF8
Идентификатор кодека/Информация : UTF-8 Plain Text
Заголовок : TEXT_01_SUB_RUS
Язык : Russian
Default : Нет
Forced : Нет

Текст #2
Идентификатор : 6
Формат : UTF-8
Идентификатор кодека : S_TEXT/UTF8
Идентификатор кодека/Информация : UTF-8 Plain Text
Заголовок : TEXT_02_SUB_ENG
Язык : English
Default : Нет
Forced : Нет

Меню
00:00:00.000 : en:00:00:00.000
00:00:58.100 : en:00:00:58.100
00:02:06.418 : en:00:02:06.418
00:06:17.961 : en:00:06:17.961
00:08:21.960 : en:00:08:21.960
00:11:34.819 : en:00:11:34.819
00:15:03.528 : en:00:15:03.528
00:21:08.517 : en:00:21:08.517
00:25:57.639 : en:00:25:57.639
00:27:54.590 : en:00:27:54.590
00:33:48.401 : en:00:33:48.401
00:35:58.740 : en:00:35:58.740
00:39:58.813 : en:00:39:58.813
00:43:40.618 : en:00:43:40.618
00:47:42.318 : en:00:47:42.318
00:51:19.785 : en:00:51:19.785
00:53:43.137 : en:00:53:43.137
00:58:58.952 : en:00:58:58.952
01:01:39.988 : en:01:01:39.988
01:04:38.416 : en:01:04:38.416
01:10:47.869 : en:01:10:47.869
01:13:39.790 : en:01:13:39.790
01:18:40.633 : en:01:18:40.633
01:24:24.142 : en:01:24:24.142
01:27:22.946 : en:01:27:22.946
01:32:08.481 : en:01:32:08.481
01:38:52.218 : en:01:38:52.218
01:40:28.022 : en:01:40:28.022
01:42:14.628 : en:01:42:14.628
01:42:38.277 : en:01:42:38.277
01:45:09.929 : en:01:45:09.929
01:49:16.592 : en:01:49:16.592
01:53:19.668 : en:01:53:19.668
01:56:40.827 : en:01:56:40.827
02:00:21.381 : en:02:00:21.381
02:07:48.411 : en:02:07:48.411
02:11:39.558 : en:02:11:39.558
02:16:19.380 : en:02:16:19.380
02:20:14.823 : en:02:20:14.823
02:25:01.151 : en:02:25:01.151
02:32:00.778 : en:02:32:00.778
02:37:56.759 : en:02:37:56.759
02:42:14.850 : en:02:42:14.850
02:51:05.922 : en:02:51:05.922
02:53:50.462 : en:02:53:50.462
02:58:35.246 : en:02:58:35.246
03:01:35.968 : en:03:01:35.968

x264 log
x264 [info]: frame I:1486 Avg QP:15.54 size:109711
x264 [info]: frame P:46466 Avg QP:18.69 size: 39888
x264 [info]: frame B:218258 Avg QP:19.87 size: 13012
Релиз от: | Автор рипа:



Скачать Барри.Линдон.Barry.Lyndon.(Стэнли.Кубрик).[1975.драма.приключения.военный.история.BDRip-AVC].[MVO]+[AVO.(Кузнецов)]+[Sub]x2.torrent без регистрации
Золото ЗОЛОТАЯ РАЗДАЧА! СКАЧАННОЕ НЕ ЗАСЧИТЫВАЕТСЯ! Золото
Дата: Зарегистрирован   [ Тип: внутренний ] Как тут cкачать?
MAGNET ссылка
MAGNET ссылка


Скачать .torrent

29 KB

Статус: проверено DHT
Скачан: торрент - 103 раз, раздача полностью - 2 раз
Размер: 5,6 GB
Оценка:  - (Голосов: 0)
Поблагодарили: 2
Поделиться ссылкой на эту раздачу с друзьями:
В контактеFacebookОдноклассникиTwitterLivejournalМой МирLiveinternet
 

 
Показать сообщения:    


Вы не можете начинать темы
Вы не можете отвечать на сообщения
Вы не можете редактировать свои сообщения
Вы не можете удалять свои сообщения
Вы не можете голосовать в опросах
Вы не можете прикреплять файлы к сообщениям
Вы можете скачивать файлы