Loading...
Error

Скачать Собор / La chiesa (Микеле Соави) [1988 г., ужасы, DVDRip-AVC] 3x[AVO (Гаврилов (поздн), Гаврилов (ранний), Штейн)] + [DVO] торрент без регистрации

 
Статистика раздачи
Размер:  1,46 GB   |    Скачан:  121 раз
Сидов:  3  [  0 KB/s  ]  
 
Автор Сообщение

durik

[] 

Собор / La chiesa

Информация о фильме
Название: Собор / Церковь
Оригинальное название: La chiesa / The Church / Cathedral of Demons
Год выхода: 1988
Жанр: ужасы
Режиссер: Микеле Соави
В ролях: Хью Куарши, Томас Арана, Федор Шаляпин мл., Барбара Куписти, Антонелла Витале, Джованни Ломбардо Радице, Азия Ардженто, Роберто Карузо, Роберто Корбилетто, Алина Де Симона

О фильме:
Средние века. Тевтонские рыцари уничтожают деревню и убивают всех ее жителей, считающихся ведьмами и колдунами. Чтобы зло не могло распространиться по земле, рыцари хоронят их останки в огромном готическом соборе…

Наши дни. В церковь прибывает новый библиотекарь Эван, где знакомится с девушкой Лизой, проводящей реставрационные работы. Вскоре они обнаруживают древний пергамент, в котором написано, что в подземелье существует неизвестное захоронение. Естественно, они ломают фундамент церкви и зло, хранившееся в подземелье несколько веков, вырывается наружу. Тела невинно убиенных людей поднимаются из могилы, и начинается кровавая эпопея. Во главе оказавшихся в церкви людей становится священник, отец Гус…



Страна: Италия
Студия: ADC Films, Cecchi Gori Group Tiger Cinematografica, Reteitalia
Продолжительность: 01:37:51
Перевод:
1: Авторский (одноголосый закадровый) Гаврилов(поздн)
2: Авторский (одноголосый закадровый) Гаврилов(ранний)
3: Профессиональный (двухголосый закадровый)
4: Авторский (одноголосый закадровый) Штейн

Файл
Кодек: AVC
Качество: DVDRip-AVC
Видео: 704x368, 1362 kbps, 25 fps, 0,210 Bits/(Pixel*Frame)
Звук:
1. AC3, 48 kHz, 2 ch, 192 kbps - AVO [Гаврилов(поздн)]
2. AC3, 48 kHz, 2 ch, 192 kbps - AVO [Гаврилов(ранний)]
3. AC3, 48 kHz, 2 ch, 192 kbps - DVO
4. AC3, 48 kHz, 2 ch, 192 kbps - AVO [Штейн]
Субтитры: Нет
General
Unique ID : 212310643731471071479717989686656502212 (0x9FB98AE9A20DDDC09AAA9DB0430A09C4)
Complete name : I:La.Chiesa.1988.DVDRip-AVC_by_Bathory.mkv
Format : Matroska
Format version : Version 2
File size : 1.46 GiB
Duration : 1h 37mn
Overall bit rate : 2 132 Kbps
Encoded date : UTC 2015-05-21 19:02:03
Writing application : mkvmerge v7.9.0 ('Birds') 32bit
Writing library : libebml v1.3.1 + libmatroska v1.4.2
DURATION : 01:37:50.016000000
NUMBER_OF_FRAMES : 183438
NUMBER_OF_BYTES : 140880384
_STATISTICS_WRITING_APP : mkvmerge v7.9.0 ('Birds') 32bit
_STATISTICS_WRITING_DATE_UTC : 2015-05-21 19:02:03
_STATISTICS_TAGS : BPS DURATION NUMBER_OF_FRAMES NUMBER_OF_BYTES

Video
ID : 1
Format : AVC
Format/Info : Advanced Video Codec
Format profile : High@L4.1
Format settings, CABAC : Yes
Format settings, ReFrames : 10 frames
Codec ID : V_MPEG4/ISO/AVC
Duration : 1h 37mn
Bit rate : 1 362 Kbps
Width : 704 pixels
Height : 368 pixels
Display aspect ratio : 1.913
Frame rate mode : Constant
Frame rate : 25.000 fps
Color space : YUV
Chroma subsampling : 4:2:0
Bit depth : 8 bits
Scan type : Progressive
Bits/(Pixel*Frame) : 0.210
Stream size : 925 MiB (62%)
Writing library : x264 core 146 r2538 121396c
Encoding settings : cabac=1 / ref=10 / deblock=1:-2:-2 / analyse=0x3:0x133 / me=umh / subme=11 / psy=1 / psy_rd=1.10:0.10 / mixed_ref=1 / me_range=48 / chroma_me=1 / trellis=2 / 8x8dct=1 / cqm=0 / deadzone=21,11 / fast_pskip=0 / chroma_qp_offset=-3 / threads=12 / lookahead_threads=2 / sliced_threads=0 / nr=0 / decimate=1 / interlaced=0 / bluray_compat=0 / constrained_intra=0 / bframes=12 / b_pyramid=2 / b_adapt=2 / b_bias=0 / direct=3 / weightb=1 / open_gop=0 / weightp=2 / keyint=250 / keyint_min=25 / scenecut=40 / intra_refresh=0 / rc_lookahead=60 / rc=2pass / mbtree=1 / bitrate=1362 / ratetol=1.0 / qcomp=0.60 / qpmin=0 / qpmax=69 / qpstep=4 / cplxblur=20.0 / qblur=0.5 / vbv_maxrate=62500 / vbv_bufsize=78125 / nal_hrd=none / filler=0 / ip_ratio=1.40 / aq=1:1.00
Default : Yes
Forced : No

Audio #1
ID : 2
Format : AC-3
Format/Info : Audio Coding 3
Mode extension : CM (complete main)
Format settings, Endianness : Big
Codec ID : A_AC3
Duration : 1h 37mn
Bit rate mode : Constant
Bit rate : 192 Kbps
Channel(s) : 2 channels
Channel positions : Front: L R
Sampling rate : 48.0 KHz
Bit depth : 16 bits
Compression mode : Lossy
Stream size : 134 MiB (9%)
Default : Yes
Forced : No

Audio #2
ID : 3
Format : AC-3
Format/Info : Audio Coding 3
Mode extension : CM (complete main)
Format settings, Endianness : Big
Codec ID : A_AC3
Duration : 1h 37mn
Bit rate mode : Constant
Bit rate : 192 Kbps
Channel(s) : 2 channels
Channel positions : Front: L R
Sampling rate : 48.0 KHz
Bit depth : 16 bits
Compression mode : Lossy
Stream size : 134 MiB (9%)
Default : No
Forced : No

Audio #3
ID : 4
Format : AC-3
Format/Info : Audio Coding 3
Mode extension : CM (complete main)
Format settings, Endianness : Big
Codec ID : A_AC3
Duration : 1h 37mn
Bit rate mode : Constant
Bit rate : 192 Kbps
Channel(s) : 2 channels
Channel positions : Front: L R
Sampling rate : 48.0 KHz
Bit depth : 16 bits
Compression mode : Lossy
Stream size : 134 MiB (9%)
Default : No
Forced : No

Audio #4
ID : 5
Format : AC-3
Format/Info : Audio Coding 3
Mode extension : CM (complete main)
Format settings, Endianness : Big
Codec ID : A_AC3
Duration : 1h 37mn
Bit rate mode : Constant
Bit rate : 192 Kbps
Channel(s) : 2 channels
Channel positions : Front: L R
Sampling rate : 48.0 KHz
Bit depth : 16 bits
Compression mode : Lossy
Stream size : 134 MiB (9%)
Default : No
Forced : No
Релиз от:

Автор рипа: Bathory



Скачать Собор.La.chiesa.(Микеле.Соави).[1988.г.ужасы.DVDRip-AVC].3x[AVO.(Гаврилов.(поздн).Гаврилов.(ранний).Штейн)].+.[DVO].torrent без регистрации
Золото ЗОЛОТАЯ РАЗДАЧА! СКАЧАННОЕ НЕ ЗАСЧИТЫВАЕТСЯ! Золото
Дата: Зарегистрирован   [ Тип: внешний ] Как тут cкачать?
MAGNET ссылка
MAGNET ссылка


Скачать .torrent

15 KB

Статус: проверено DHT
Скачан: торрент - 121 раз, раздача полностью - 27 раз
Размер: 1,46 GB
Оценка:  - (Голосов: 0)
Поблагодарили: 3
Поделиться ссылкой на эту раздачу с друзьями:
В контактеFacebookОдноклассникиTwitterLivejournalМой МирLiveinternet
 

 
Показать сообщения:    


Вы не можете начинать темы
Вы не можете отвечать на сообщения
Вы не можете редактировать свои сообщения
Вы не можете удалять свои сообщения
Вы не можете голосовать в опросах
Вы не можете прикреплять файлы к сообщениям
Вы можете скачивать файлы