Loading...
Error

Скачать Нежный полицейский / Tendre poulet (Филипп Де Брока) [1978, боевик, триллер, комедия, экранизация, BDRip AVC] [MVO]+[Оригинал] торрент без регистрации

 
Статистика раздачи
Размер:  2,61 GB   |    Скачан:  106 раз
Сидов:  1  [  0 KB/s  ]  
 
Автор Сообщение

Marsianka

[] 

Название: Нежный полицейский
Оригинальное название: Tendre poulet
Год выпуска: 1978
Страна: Франция
Жанр: боевик, триллер, комедия, экранизация
Продолжительность: 01:45:57
Перевод: профессиональный многоголосый

Режиссёр: Филипп Де Брока

В ролях: Анни Жирардо, Филипп Нуаре, Катрин Альрик, Юбер Дешан, Полетт Дюбо, Роже Дюма, Раймон Жером, Ги Маршан, Симона Ренан, Жорж Вильсон, Моник Тарбес, Анри Черняк, Морис Иллуз, Давид Габисон, Гэбриел Жаббур, Мишель Роше, Жак Буде, Анна Гейлор, Жак Франц, Франсис Лемэр, Жаклин Дуайен

Описание: Анни Жирардо в роли комиссара полиции. Она случайно встречает старого знакомого, с которым когда-то вместе училась. Между ними разгорается роман, и только через некоторое время профессор, преподающий греческий язык в колледже, узнаёт, что женщина работает в полиции да ещё и ведёт важное расследование, связанное с самыми настоящими убийствами. Кто-то убивает депутатов шилом с изображением леопарда на рукоятке. Профессору приходится на своей шкуре убедиться в том, что работа полицейских полна опасностей... Экранизация произведения Жан-Поль Рулана.



Качество: BDRip AVC Сравнение с исходником
Формат: MKV
Видео: MPEG-4 AVC, 3079 Кбит/с, 960x576, 24 кадр/с
Аудио 1: русский, AC3, 192 kbps, 2 ch, 48 kHz [профессиональный многоголосый, НТВ]
Аудио 2: французский, AC3, 192 kbps, 2 ch, 48 kHz [оригинал]
Общее
Уникальный идентификатор : 212515378986001884897350424997468593707 (0x9FE0F923D833DD4FB6C71233AD6C5E2B)
Полное имя : D:VideoНежный полицейский.1977.BDRip.AVC.mkv
Формат : Matroska
Версия формата : Version 4 / Version 2
Размер файла : 2,61 Гбайт
Продолжительность : 1 ч. 45 м.
Общий поток : 3533 Кбит/сек
Название фильма : BDRip -- STarankov
Дата кодирования : UTC 2015-05-26 04:18:44
Программа кодирования : mkvmerge v7.9.0 ('Birds') 64bit
Библиотека кодирования : libebml v1.3.1 + libmatroska v1.4.2
_STATISTICS_WRITING_APP : mkvmerge v7.9.0 ('Birds') 64bit
_STATISTICS_WRITING_DATE_UTC : 2015-05-26 04:18:44
_STATISTICS_TAGS : BPS DURATION NUMBER_OF_FRAMES NUMBER_OF_BYTES
DURATION : 01:45:56.000000000
NUMBER_OF_FRAMES : 198625
NUMBER_OF_BYTES : 152544000

Видео
Идентификатор : 1
Формат : AVC
Формат/Информация : Advanced Video Codec
Профиль формата : High@L4.1
Параметр CABAC формата : Да
Параметр ReFrames формата : 9 кадров
Идентификатор кодека : V_MPEG4/ISO/AVC
Продолжительность : 1 ч. 45 м.
Битрейт : 3079 Кбит/сек
Ширина : 960 пикселей
Высота : 576 пикселей
Соотношение сторон : 1,667
Режим частоты кадров : Постоянный
Частота кадров : 24,000 кадра/сек
Цветовое пространство : YUV
Субдискретизация насыщенности : 4:2:0
Битовая глубина : 8 бит
Тип развёртки : Прогрессивная
Бит/(Пиксели*Кадры) : 0.232
Размер потока : 2,28 Гбайт (87%)
Библиотека кодирования : x264 core 146 r2538 121396c
Настройки программы : cabac=1 / ref=9 / deblock=1:-1:-1 / analyse=0x3:0x113 / me=umh / subme=10 / psy=1 / psy_rd=1.00:0.15 / mixed_ref=1 / me_range=32 / chroma_me=1 / trellis=2 / 8x8dct=1 / cqm=0 / deadzone=21,11 / fast_pskip=1 / chroma_qp_offset=-3 / threads=6 / lookahead_threads=1 / sliced_threads=0 / nr=0 / decimate=1 / interlaced=0 / bluray_compat=0 / constrained_intra=0 / bframes=11 / b_pyramid=2 / b_adapt=2 / b_bias=0 / direct=1 / weightb=1 / open_gop=0 / weightp=2 / keyint=230 / keyint_min=23 / scenecut=40 / intra_refresh=0 / rc_lookahead=40 / rc=crf / mbtree=0 / crf=19.7 / qcomp=0.60 / qpmin=0 / qpmax=69 / qpstep=4 / vbv_maxrate=40000 / vbv_bufsize=50000 / crf_max=0.0 / nal_hrd=none / filler=0 / ip_ratio=1.40 / pb_ratio=1.30 / aq=1:1.00
Язык : French
Default : Да
Forced : Нет
DURATION : 01:45:57.000000000
NUMBER_OF_FRAMES : 152568
NUMBER_OF_BYTES : 2500976385
_STATISTICS_WRITING_APP : mkvmerge v7.9.0 ('Birds') 64bit
_STATISTICS_WRITING_DATE_UTC : 2015-05-26 04:18:44
_STATISTICS_TAGS : BPS DURATION NUMBER_OF_FRAMES NUMBER_OF_BYTES

Аудио #1
Идентификатор : 2
Формат : AC-3
Формат/Информация : Audio Coding 3
Расширение режима : CM (complete main)
Параметр Endianness формата : Big
Идентификатор кодека : A_AC3
Продолжительность : 1 ч. 45 м.
Вид битрейта : Постоянный
Битрейт : 192 Кбит/сек
Каналы : 2 канала
Расположение каналов : Front: L R
Частота : 48,0 КГц
Битовая глубина : 16 бит
Метод сжатия : С потерями
Размер потока : 146 Мбайт (5%)
Заголовок : MVO (HTB)
Язык : Russian
Default : Да
Forced : Нет

Аудио #2
Идентификатор : 3
Формат : AC-3
Формат/Информация : Audio Coding 3
Расширение режима : CM (complete main)
Параметр Endianness формата : Big
Идентификатор кодека : A_AC3
Продолжительность : 1 ч. 45 м.
Вид битрейта : Постоянный
Битрейт : 192 Кбит/сек
Каналы : 2 канала
Расположение каналов : Front: L R
Частота : 48,0 КГц
Битовая глубина : 16 бит
Метод сжатия : С потерями
Размер потока : 146 Мбайт (5%)
Заголовок : Original
Язык : French
Default : Нет
Forced : Нет



Скачать Нежный.полицейский.Tendre.poulet.(Филипп.Де.Брока).[1978.боевик.триллер.комедия.экранизация.BDRip.AVC].[MVO]+[Оригинал].torrent без регистрации
Золото ЗОЛОТАЯ РАЗДАЧА! СКАЧАННОЕ НЕ ЗАСЧИТЫВАЕТСЯ! Золото
Дата: Зарегистрирован   [ Тип: внутренний ] Как тут cкачать?
MAGNET ссылка
MAGNET ссылка


Скачать .torrent

14 KB

Статус: проверено DHT
Скачан: торрент - 106 раз, раздача полностью - 3 раз
Размер: 2,61 GB
Оценка:  - (Голосов: 0)
Поблагодарили: 1
Поделиться ссылкой на эту раздачу с друзьями:
В контактеFacebookОдноклассникиTwitterLivejournalМой МирLiveinternet
 

 
Показать сообщения:    


Вы не можете начинать темы
Вы не можете отвечать на сообщения
Вы не можете редактировать свои сообщения
Вы не можете удалять свои сообщения
Вы не можете голосовать в опросах
Вы не можете прикреплять файлы к сообщениям
Вы можете скачивать файлы