Loading...
Error

Скачать Маньяк-полицейский 2 / Maniac Cop 2 (Уильям Ластиг) [1990, боевик, мистика, триллер, ужасы, криминал, BDRip-AVC] [VO]+[Sub]x2 торрент без регистрации

 
Статистика раздачи
Размер:  2,19 GB   |    Скачан:  116 раз
Сидов:  1  [  0 KB/s  ]  
 
Автор Сообщение

Marsianka

[] 

Информация о фильме
Название: Маньяк-полицейский 2
Оригинальное название: Maniac Cop 2
Год выхода: 1990
Жанр: боевик, мистика, триллер, ужасы, криминал
Режиссер: Уильям Ластиг
В ролях: Роберт Дави, Клаудиа Кристиан, Майкл Лернер, Брюс Кэмпбелл, Лаурен Лэндон, Кларенс Уильямс III

О фильме:
Все думают, что Мэт Корделл утонул в пучинах реки, куда он упал в полицейском грузовике, но они жестоко ошибаются. Мэтт сам назначил себя судьей, жюри присяжных и палачом. Совсем недавно он был героем, лучшим полицейским, но его приверженность к справедливости добавило ему врагов, властных и безжалостных, могущественных и непримиримых. Они отправили его в тюрьму Синг-Синг прямо в лапы злых преступников, которых он сам недавно засадил за решетку. Но теперь их обман и коррупция создали монстра, которого не может контролировать никто. Восставший из мертвых маньяк-полицейский снова на посту и единственный билет, который он выписывает-это билет в морг…


Страна: США, Medusa Pictures, Fadd Enterprises, Overseas FilmGroup
Продолжительность: 01:27:22
Перевод: Любительский одноголосый закадровый

Файл
Кодек: x264
Качество: BDRip-AVC
Видео: MPEG-4 AVC, 2950 Кбит/с, 1024x552, 23.976 кадр/с
Звук: Русский (AC3, 2 ch, 192 Кбит/с), английский (AC3, 6 ch, 448 Кбит/c)
Субтитры: Русские, английские

Семпл
За исходный BD Remux спасибо: kaspr
За постер спасибо: Media-Art-Club
x264 [info]: frame I:945 Avg QP:14.87 size: 95677
x264 [info]: frame P:31459 Avg QP:17.36 size: 30469
x264 [info]: frame B:93293 Avg QP:19.74 size: 9462

Format : Matroska
Format version : Version 4 / Version 2
File size : 2.19 GiB
Duration : 1h 27mn
Overall bit rate : 3 590 Kbps
Movie name : -=MediaClub - Odessit=-
Encoded date : UTC 2013-11-25 08:58:55
Writing application : mkvmerge v6.2.0 ('Promised Land') built on Apr 28 2013 12:22:01
Writing library : libebml v1.3.0 + libmatroska v1.4.0

Video
ID : 1
Format : AVC
Format/Info : Advanced Video Codec
Format profile : High@L4.1
Format settings, CABAC : Yes
Format settings, ReFrames : 10 frames
Codec ID : V_MPEG4/ISO/AVC
Duration : 1h 27mn
Bit rate : 2 950 Kbps
Width : 1 024 pixels
Height : 552 pixels
Display aspect ratio : 1.855
Frame rate : 23.976 fps
Color space : YUV
Chroma subsampling : 4:2:0
Bit depth : 8 bits
Scan type : Progressive
Bits/(Pixel*Frame) : 0.218
Stream size : 1.76 GiB (80%)
Writing library : x264 core 130 r2273 b3065e6
Encoding settings : cabac=1 / ref=10 / deblock=1:-3:-3 / analyse=0x3:0x133 / me=umh / subme=11 / psy=1 / psy_rd=1.00:0.20 / mixed_ref=1 / me_range=48 / chroma_me=1 / trellis=2 / 8x8dct=1 / cqm=0 / deadzone=21,11 / fast_pskip=0 / chroma_qp_offset=-3 / threads=6 / lookahead_threads=1 / sliced_threads=0 / nr=0 / decimate=0 / interlaced=0 / bluray_compat=0 / constrained_intra=0 / bframes=9 / b_pyramid=2 / b_adapt=2 / b_bias=0 / direct=3 / weightb=1 / open_gop=0 / weightp=2 / keyint=240 / keyint_min=23 / scenecut=40 / intra_refresh=0 / rc=2pass / mbtree=0 / bitrate=2950 / ratetol=1.0 / qcomp=0.60 / qpmin=0 / qpmax=69 / qpstep=4 / cplxblur=20.0 / qblur=0.5 / ip_ratio=1.40 / pb_ratio=1.30 / aq=1:1.00
Language : English

Audio #1
ID : 2
Format : AC-3
Format/Info : Audio Coding 3
Mode extension : CM (complete main)
Codec ID : A_AC3
Duration : 1h 27mn
Bit rate mode : Constant
Bit rate : 192 Kbps
Channel(s) : 2 channels
Channel positions : Front: L R
Sampling rate : 48.0 KHz
Bit depth : 16 bits
Compression mode : Lossy
Stream size : 120 MiB (5%)
Title : Любительский одноголосый
Language : Russian

Audio #2
ID : 3
Format : AC-3
Format/Info : Audio Coding 3
Mode extension : CM (complete main)
Codec ID : A_AC3
Duration : 1h 27mn
Bit rate mode : Constant
Bit rate : 448 Kbps
Channel(s) : 6 channels
Channel positions : Front: L C R, Side: L R, LFE
Sampling rate : 48.0 KHz
Bit depth : 16 bits
Compression mode : Lossy
Stream size : 280 MiB (12%)
Language : English

Text #1
ID : 4
Format : UTF-8
Codec ID : S_TEXT/UTF8
Codec ID/Info : UTF-8 Plain Text
Language : Russian

Text #2
ID : 5
Format : UTF-8
Codec ID : S_TEXT/UTF8
Codec ID/Info : UTF-8 Plain Text
Language : English

Menu
00:00:00.000 : en:Chapter 01
00:05:42.924 : en:Chapter 02
00:10:52.443 : en:Chapter 03
00:17:27.963 : en:Chapter 04
00:22:51.243 : en:Chapter 05
00:28:11.398 : en:Chapter 06
00:37:30.331 : en:Chapter 07
00:42:21.997 : en:Chapter 08
00:46:21.820 : en:Chapter 09
00:51:00.140 : en:Chapter 10
00:56:42.440 : en:Chapter 11
01:03:04.780 : en:Chapter 12
01:07:35.259 : en:Chapter 13
01:12:50.448 : en:Chapter 14
01:17:00.532 : en:Chapter 15
01:23:21.371 : en:Chapter 16
Релиз от: |



Скачать Маньяк-полицейский.2.Maniac.Cop.2.(Уильям.Ластиг).[1990.боевик.мистика.триллер.ужасы.криминал.BDRip-AVC].[VO]+[Sub]x2.torrent без регистрации
Золото ЗОЛОТАЯ РАЗДАЧА! СКАЧАННОЕ НЕ ЗАСЧИТЫВАЕТСЯ! Золото
Дата: Зарегистрирован   [ Тип: внутренний ] Как тут cкачать?
MAGNET ссылка
MAGNET ссылка


Скачать .torrent

11 KB

Статус: проверено DHT
Скачан: торрент - 116 раз, раздача полностью - 0 раз
Размер: 2,19 GB
Оценка:  - (Голосов: 0)
Поблагодарили: 0
Поделиться ссылкой на эту раздачу с друзьями:
В контактеFacebookОдноклассникиTwitterLivejournalМой МирLiveinternet
 

 
Показать сообщения:    


Вы не можете начинать темы
Вы не можете отвечать на сообщения
Вы не можете редактировать свои сообщения
Вы не можете удалять свои сообщения
Вы не можете голосовать в опросах
Вы не можете прикреплять файлы к сообщениям
Вы можете скачивать файлы