Loading...
Error

Скачать Мистер Робот / Mr. Robot (сезон 01) (Нильс Арден Оплев) [2015, драма, криминал, WEB-DL] [720p] [MVO (NewStudio)]+[Original (Eng)] торрент без регистрации

 
Статистика раздачи
Размер:  16,12 GB   |    Скачан:  256 раз
Сидов:  1  [  0 KB/s  ]  
 
Автор Сообщение

МихаНЕзатор

[] 

Мистер Робот / Mr. Robot
(1 сезон)

Год выпуска: 2015
Страна: США, USA Network
Жанр: Драма, психологический триллер
Продолжительность: 01:04:52 (Pilot)
Перевод: Профессиональный многоголосый закадровый [NewStudio]
Субтитры: Нет
Режиссёр: Нильс Арден Оплев / Niels Arden Oplev

В ролях: Рами Малек / Rami Malek, Брюс Олтмен / Bruce Altman, Майкл Бушеми / Michael Buscemi, Карли Чаикин / Carly Chaikin, Самрат Чакрабарти / Samrat Chakrabarti, Портия Даблдэй / Portia Doubleday, Майкл Гилл / Michael Gill, Кристиан Слэйтер / Christian Slater и др.

Описание: История молодого программиста Эллиота, страдающего диссоциальным расстройством личности и решившего, что единственный приемлемый для него способ взаимодействия с людьми — это профессия хакера. Таким образом, он быстро оказывается в том самом месте, где пересекаются интересы его работодателя — фирмы, занимающейся кибербезопасностью, — и подпольных организаций, которые пытаются его завербовать с целью обрушения самых могучих американских корпораций.

Дополнительная информация:
Релиз:
Перевод: Григорий Сенин

Качество: WEB-DL 720p
Контейнер: MKV
Видео: AVC, 1280x720 (1.78:1), 23.976 fps, ~3932 kbps, 0.18 b/p
Аудио #1: Русский двухголосый: AC3, 48 kHz, 5.1, 384 kbps | NewStudio TV
Аудио #2: Английский оригинал: AC3, 48 kHz, 5.1, 384 kbps
Субтитры: Отсутствуют

АНОНСЫ ПОПУЛЯРНЫХ РАЗДАЧ


Торрент обновлён, добавлена 10-я серия!

01. ПРИВЕТДРУГ.MOV (HELLOFRIEND.MOV)
02. ЕДИНИЦЫ-И-НУЛИ.MPEG (ONES-AND-ZEROES.MPEG)
03. д3баг.mkv (d3bug.mkv)
04. д3м0ны.mp4 (da3m0ns.mp4)
05. уя3вим0сти.wmv (3xpl0its.wmv)
06. хр4брый-путник.asf (br4ve-trave1er.asf)
07. исх0дный-к0д.flv (v1ew-s0urce.flv)
08. б3лаяр0за.m4v (wh1ter0se.m4v)
09. зерк4л0.qt (m1rr0r1ng.qt)
10. Нулев0й-день.avi (zer0-day.avi)
Формат : Matroska
Версия формата : Version 2
Размер файла : 2,13 Гбайт
Продолжительность : 1 ч. 4 м.
Общий поток : 4702 Кбит/сек
Дата кодирования : UTC 2015-05-30 11:26:13
Программа кодирования : mkvmerge v2.9.9 ('Tutu') built on Nov 25 2009 21:13:32
Библиотека кодирования : libebml v0.7.9 + libmatroska v0.8.1
Видео
Идентификатор : 1
Формат : AVC
Формат/Информация : Advanced Video Codec
Профиль формата : High@L3.1
Параметр CABAC формата : Нет
Параметр ReFrames формата : 2 кадра
Идентификатор кодека : V_MPEG4/ISO/AVC
Продолжительность : 1 ч. 4 м.
Битрейт : 3841 Кбит/сек
Ширина : 1280 пикселей
Высота : 720 пикселей
Соотношение сторон : 16:9
Режим частоты кадров : Постоянный
Частота кадров : 23,976 кадра/сек
Цветовое пространство : YUV
Субдискретизация насыщенности : 4:2:0
Битовая глубина : 8 бит
Тип развёртки : Прогрессивная
Бит/(Пиксели*Кадры) : 0.174
Размер потока : 1,74 Гбайт (82%)
Язык : English
Default : Нет
Forced : Нет
Основные цвета : BT.709
Характеристики трансфера : BT.709
Коэффициенты матрицы : BT.709
Аудио #1
Идентификатор : 2
Формат : AC-3
Формат/Информация : Audio Coding 3
Расширение режима : CM (complete main)
Параметр Endianness формата : Big
Идентификатор кодека : A_AC3
Продолжительность : 1 ч. 4 м.
Вид битрейта : Постоянный
Битрейт : 384 Кбит/сек
Каналы : 6 каналов
Расположение каналов : Front: L C R, Side: L R, LFE
Частота : 48,0 КГц
Битовая глубина : 16 бит
Метод сжатия : С потерями
Размер потока : 178 Мбайт (8%)
Язык : Russian
Default : Да
Forced : Да
Аудио #2
Идентификатор : 3
Формат : AC-3
Формат/Информация : Audio Coding 3
Расширение режима : CM (complete main)
Параметр Endianness формата : Big
Идентификатор кодека : A_AC3
Продолжительность : 1 ч. 4 м.
Вид битрейта : Постоянный
Битрейт : 384 Кбит/сек
Каналы : 6 каналов
Расположение каналов : Front: L C R, Side: L R, LFE
Частота : 48,0 КГц
Битовая глубина : 16 бит
Метод сжатия : С потерями
Размер потока : 178 Мбайт (8%)
Язык : English
Default : Нет
Forced : Нет
Внимание! Раздача ведётся путём добавления новых серий; при каждом добавлении создаётся новый торрент. Чтобы начать докачку новой серии, пользователям необходимо сделать следующее:
(1) остановить скачивание,
(2) удалить старый торрент у себя из клиента (старые серии удалять не надо),
(3) скачать новый торрент и запустить его у себя в клиенте вместо старого, при этом указать клиенту путь в старую папку куда и должно происходить скачивание новых серий.
Ваш клиент при этом должен произвести хеширование (проверку) старой папки (если не производит сам - помогите ему сделать это), и будет докачивать только те серии которых у вас ещё нет. Старые серии при этом не удаляются, а продолжают раздаваться!
Eсли вы уже удалили старые серии, то предотвратить повторную закачку старых серий можно, отжав галочку в соответствующих местах при запуске нового торрента. По возможности, желательно не удалять старые серии как можно дольше чтобы релизёр не столько продолжал раздавать старые серии, а смог сконцентрироваться на новых.



Скачать Мистер.Робот.Mr.Robot.(сезон.01).(Нильс.Арден.Оплев).[2015.драма.криминал.WEB-DL].[720p].[MVO.(NewStudio)]+[Original.(Eng)].torrent без регистрации
Золото ЗОЛОТАЯ РАЗДАЧА! СКАЧАННОЕ НЕ ЗАСЧИТЫВАЕТСЯ! Золото
Дата: Зарегистрирован   [ Тип: внутренний ] Как тут cкачать?
MAGNET ссылка
MAGNET ссылка


Скачать .torrent

42 KB

Статус: проверено DHT
Скачан: торрент - 256 раз, раздача полностью - 27 раз
Размер: 16,12 GB
Оценка:  - (Голосов: 0)
Поблагодарили: 2
Поделиться ссылкой на эту раздачу с друзьями:
В контактеFacebookОдноклассникиTwitterLivejournalМой МирLiveinternet
 

 
Показать сообщения:    


Вы не можете начинать темы
Вы не можете отвечать на сообщения
Вы не можете редактировать свои сообщения
Вы не можете удалять свои сообщения
Вы не можете голосовать в опросах
Вы не можете прикреплять файлы к сообщениям
Вы можете скачивать файлы