Loading...
Error

Скачать Пустая корона / The Hollow Crown (сезон 01) (Доминик Кук и др.) [2012, драма, история, HDTVRip] [720p] [MVO (СВ Дубль)]+[Eng]+[Sub Rus] торрент без регистрации

 
Статистика раздачи
Размер:  11,41 GB   |    Скачан:  203 раза
Сидов:  1  [  93 KB/s  ]  
 
Автор Сообщение

МихаНЕзатор

[] 

Информация о фильме
Название: Пустая корона
Оригинальное название: The Hollow Crown
Год выхода: 2012
Жанр: драма, история
Режиссер: Доминик Кук, Ричард Эйр, Руперт Гулд

В ролях: Бен Уишоу, Джеймс Пьюрфой, Клеманс Поэзи, Джереми Айронс, Том Хиддлстон, Дэвид Моррисси, Гарри Ллойд, Дэвид Суше, Джули Уолтерс, Мишель Докери, Ричард Гриффитс и др.

О фильме: Цикл экранизаций исторических пьес Уильяма Шекспира от телеканала ВВС Two под общим названием «Пустая корона». В цикл входят фильмы «Ричард II», «Генрих IV. Часть 1.«, »Генрих IV. Часть 2.« и »Генрих V». История о семье, политике и власти. Сериал рассказывает о взлете и падении трех королей и о том, как их судьбы формировали историю. Ричард II — тщеславный, самодовольный человек, правит, нимало не заботясь о благосостоянии подданных. В конечном итоге его свергает его кузен Болингброк, взошедший на престол как Генрих IV. Царствование Генриха омрачено чувством вины из-за смерти Ричарда, гражданской войной и опасениями за сына Хэла. Когда Хэл восходит на престол как Генрих V, ему остается только похоронить в прошлом призрак отца и бороться со своими собственными демонами.



Страна: Великобритания
Студия: Neal Street Productions, NBCUniversal, WNET, BBC Two, PBS
Продолжительность: 02:21:38 + 1:54:50 + 1:55:50 + 2:12:00
Перевод: Профессиональный (многоголосый закадровый) [СВ Дубль]

Файл
Кодек: H.264 / AC3
Качество: HDTVRip 720p
Видео: AVC, 1280x720 (16:9), 25.000 fps, 2 195 Kbps (0.095 bit/pixel)
Звук:
Аудио #1: AC-3, 48.0 KHz, 2 ch, 192 Kbps, CBR (Russian)
Аудио #2: AC-3, 48.0 KHz, 2 ch, 192 Kbps, CBR (English)
Субтитры: Русские (в составе контейнера, отключаемые)

АНОНСЫ ПОПУЛЯРНЫХ РАЗДАЧ
General
Unique ID : 193698440168282711251438594593819666769 (0x91B8F66D9DE612F68B5AEAD59C732951)
Complete name : Hollow Crown s01e01 - Richard II.mkv
Format : Matroska
Format version : Version 4 / Version 2
File size : 2.60 GiB
Duration : 2h 21mn
Overall bit rate : 2 632 Kbps
Encoded date : UTC 2015-02-25 07:10:02
Writing application : mkvmerge v6.3.0 ('You can't stop me!') built on Jul 19 2013 16:27:38
Writing library : popcornsux

Video
ID : 1
Format : AVC
Format/Info : Advanced Video Codec
Format profile : High@L4.1
Format settings, CABAC : Yes
Format settings, ReFrames : 5 frames
Codec ID : V_MPEG4/ISO/AVC
Duration : 2h 21mn
Bit rate : 2 195 Kbps
Width : 1 280 pixels
Height : 720 pixels
Display aspect ratio : 16:9
Frame rate mode : Constant
Frame rate : 25.000 fps
Color space : YUV
Chroma subsampling : 4:2:0
Bit depth : 8 bits
Scan type : Progressive
Bits/(Pixel*Frame) : 0.095
Stream size : 2.17 GiB (83%)
Writing library : x264 core 125 r2200 999b753
Encoding settings : cabac=1 / ref=5 / deblock=1:0:0 / analyse=0x3:0x113 / me=umh / subme=8 / psy=1 / psy_rd=1.00:0.00 / mixed_ref=1 / me_range=16 / chroma_me=1 / trellis=1 / 8x8dct=1 / cqm=0 / deadzone=21,11 / fast_pskip=1 / chroma_qp_offset=-2 / threads=12 / lookahead_threads=2 / sliced_threads=0 / nr=0 / decimate=1 / interlaced=0 / bluray_compat=0 / constrained_intra=0 / bframes=3 / b_pyramid=2 / b_adapt=2 / b_bias=0 / direct=3 / weightb=1 / open_gop=0 / weightp=2 / keyint=250 / keyint_min=25 / scenecut=40 / intra_refresh=0 / rc_lookahead=50 / rc=crf / mbtree=1 / crf=19.0 / qcomp=0.60 / qpmin=0 / qpmax=69 / qpstep=4 / ip_ratio=1.40 / aq=1:1.00
Language : English
Default : Yes
Forced : No

Audio #1
ID : 2
Format : AC-3
Format/Info : Audio Coding 3
Mode extension : CM (complete main)
Format settings, Endianness : Big
Codec ID : A_AC3
Duration : 2h 21mn
Bit rate mode : Constant
Bit rate : 192 Kbps
Channel(s) : 2 channels
Channel positions : Front: L R
Sampling rate : 48.0 KHz
Bit depth : 16 bits
Compression mode : Lossy
Stream size : 194 MiB (7%)
Language : Russian
Default : Yes
Forced : No

Audio #2
ID : 3
Format : AC-3
Format/Info : Audio Coding 3
Mode extension : CM (complete main)
Format settings, Endianness : Big
Codec ID : A_AC3
Duration : 2h 21mn
Bit rate mode : Constant
Bit rate : 192 Kbps
Channel(s) : 2 channels
Channel positions : Front: L R
Sampling rate : 48.0 KHz
Bit depth : 16 bits
Compression mode : Lossy
Stream size : 194 MiB (7%)
Language : English
Default : No
Forced : No

Text
ID : 4
Format : UTF-8
Codec ID : S_TEXT/UTF8
Codec ID/Info : UTF-8 Plain Text
Language : Russian
Default : Yes
Forced : No



Скачать Пустая.корона.The.Hollow.Crown.(сезон.01).(Доминик.Кук.и.др.).[2012.драма.история.HDTVRip].[720p].[MVO.(СВ.Дубль)]+[Eng]+[Sub.Rus].torrent без регистрации
Золото ЗОЛОТАЯ РАЗДАЧА! СКАЧАННОЕ НЕ ЗАСЧИТЫВАЕТСЯ! Золото
Дата: Зарегистрирован   [ Тип: внутренний ] Как тут cкачать?
MAGNET ссылка
MAGNET ссылка


Скачать .torrent

29 KB

Статус: проверено DHT
Скачан: торрент - 203 раз, раздача полностью - 286 раз
Размер: 11,41 GB
Оценка:  5 (Голосов: 1)
Поблагодарили: 2
Поделиться ссылкой на эту раздачу с друзьями:
В контактеFacebookОдноклассникиTwitterLivejournalМой МирLiveinternet
 

 
Показать сообщения:    


Вы не можете начинать темы
Вы не можете отвечать на сообщения
Вы не можете редактировать свои сообщения
Вы не можете удалять свои сообщения
Вы не можете голосовать в опросах
Вы не можете прикреплять файлы к сообщениям
Вы можете скачивать файлы