Loading...
Error

Скачать Чистота / Spotless (сезон 01) (Паскаль Шомель и др.) [2015, криминал, BDRip] [720p] [MVO (AlexFilm)]+[Eng]+[Sub Rus] торрент без регистрации

 
Статистика раздачи
Размер:  22,43 GB   |    Скачан:  139 раз
Сидов:  1  [  0 KB/s  ]  
 
Автор Сообщение

МихаНЕзатор

[] 

Информация о сериале
Название: Чистота
Оригинальное название: Spotless
Год выхода: 2015
Жанр: драма, криминал
Авторы идеи: Эд МакКарди /Ed McCardie/, Корина Мерриан /Corinne Marrinan/
Режиссеры: Паскаль Шомель /Pascal Chaumeil/, Фил Джон /Philip John/, Чина Му-Ен /China Moo-Young/ и др.

В ролях: Марк-Андре Гронден /Marc-André Grondin/, Дени Меноше /Denis Menochet/, Миранда Рэйсон /Miranda Raison/, Даг Аллен /Doug Allen/, Лайам Гэрриган /Liam Garrigan/, Киаран Оуэнс /Ciarán Owens/, Кейт Магоуэн /Kate Magowan/, Таня Феар /Tanya Fear/, Наоми Рэдклифф /Naomi Radcliffe/, Люси Экхерст /Lucy Akhurst/ и др.

О сериале: История чистильщика мест преступлений Жана, чья тихая жизнь кардинально меняется, когда к нему в дом заявляется его брат Мартин, который втягивает его в смертельно опасный криминальный мир.

Релиз от:

Страна: Франция, Великобритания
Студии: Canal+ / Tandem Communications
Продолжительность: 10 x ~ 00:56:00
Перевод: Профессиональный (многоголосый, закадровый) - AlexFilm

Перевод: Константин Кривоногов
Монтаж и сведение звука: Михаил Шорыгин
Роли озвучивали:
Евгения Тихонова
Роман Сопко
Сергей Пономарев
Михаил Суслов

Файл
Кодек: H.264
Качество: BDRip 720p
Видео: 1280x720 at 25.000 fps, x264@L4.1, crf, ~4600 kbps avg
Аудио#1: Russian: 48 kHz, AC3, 3/2 (L,C,R,l,r) + LFE ch, ~640.00 kbps avg |Многоголосый закадровый, AlexFilm|
Аудио#2: English: 48 kHz, AC3, 3/2 (L,C,R,l,r) + LFE ch, ~640.00 kbps avg |Оригинал|
Субтитры: Russian (Forced)

АНОНСЫ ПОПУЛЯРНЫХ РАЗДАЧ


Торрент обновлён, добавлена 10-я серия!

01. Episode 1 / Серия 1
02. Episode 2 / Серия 2
03. Episode 3 / Серия 3
04. Episode 4 / Серия 4
05. Episode 5 / Серия 5
06. Episode 6 / Серия 6
07. Episode 7 / Серия 7
08. Episode 8 / Серия 8
09. Episode 9 / Серия 9
10. Episode 10 / Серия 10
General
Complete name : Spotless.s01e01.BDRip.720p.Rus.Eng.AlexFilm.mkv
Format : Matroska
Format version : Version 4 / Version 2
File size : 2.35 GiB
Duration : 55mn 50s
Overall bit rate : 6 029 Kbps
Movie name : Spotless 1x01 @ AlexFilm
Encoded date : UTC 2015-06-07 10:12:52
Writing application : mkvmerge v6.6.0 ('The Edge Of The In Between') built on Dec 1 2013 17:55:00
Writing library : libebml v1.3.0 + libmatroska v1.4.1

Video
ID : 1
Format : AVC
Format/Info : Advanced Video Codec
Format profile : High@L4.1
Format settings, CABAC : Yes
Format settings, ReFrames : 9 frames
Codec ID : V_MPEG4/ISO/AVC
Duration : 55mn 50s
Bit rate : 4 629 Kbps
Width : 1 280 pixels
Height : 720 pixels
Display aspect ratio : 16:9
Frame rate mode : Constant
Frame rate : 25.000 fps
Color space : YUV
Chroma subsampling : 4:2:0
Bit depth : 8 bits
Scan type : Progressive
Bits/(Pixel*Frame) : 0.201
Stream size : 1.81 GiB (77%)
Writing library : x264 core 146 r2538 121396c
Encoding settings : cabac=1 / ref=9 / deblock=1:-1:-1 / analyse=0x3:0x133 / me=umh / subme=10 / psy=1 / psy_rd=1.00:0.15 / mixed_ref=1 / me_range=32 / chroma_me=1 / trellis=2 / 8x8dct=1 / cqm=0 / deadzone=21,11 / fast_pskip=0 / chroma_qp_offset=-3 / threads=12 / lookahead_threads=2 / sliced_threads=0 / nr=0 / decimate=1 / interlaced=0 / bluray_compat=0 / constrained_intra=0 / bframes=8 / b_pyramid=2 / b_adapt=2 / b_bias=0 / direct=3 / weightb=1 / open_gop=0 / weightp=2 / keyint=250 / keyint_min=25 / scenecut=40 / intra_refresh=0 / rc_lookahead=60 / rc=crf / mbtree=1 / crf=16.0 / qcomp=0.60 / qpmin=0 / qpmax=69 / qpstep=4 / ip_ratio=1.40 / aq=1:1.00
Default : Yes
Forced : No

Audio #1
ID : 2
Format : AC-3
Format/Info : Audio Coding 3
Mode extension : CM (complete main)
Format settings, Endianness : Big
Codec ID : A_AC3
Duration : 55mn 50s
Bit rate mode : Constant
Bit rate : 640 Kbps
Channel(s) : 6 channels
Channel positions : Front: L C R, Side: L R, LFE
Sampling rate : 48.0 KHz
Compression mode : Lossy
Stream size : 256 MiB (11%)
Title : DD5.1 AlexFilm
Language : Russian
Default : Yes
Forced : No

Audio #2
ID : 3
Format : AC-3
Format/Info : Audio Coding 3
Mode extension : CM (complete main)
Format settings, Endianness : Big
Codec ID : A_AC3
Duration : 55mn 50s
Bit rate mode : Constant
Bit rate : 640 Kbps
Channel(s) : 6 channels
Channel positions : Front: L C R, Side: L R, LFE
Sampling rate : 48.0 KHz
Compression mode : Lossy
Stream size : 256 MiB (11%)
Title : DD5.1 Original
Language : English
Default : No
Forced : No

Text
ID : 4
Format : ASS
Codec ID : S_TEXT/ASS
Codec ID/Info : Advanced Sub Station Alpha
Compression mode : Lossless
Title : Forced
Language : Russian
Default : Yes
Forced : Yes



Скачать Чистота.Spotless.(сезон.01).(Паскаль.Шомель.и.др.).[2015.криминал.BDRip].[720p].[MVO.(AlexFilm)]+[Eng]+[Sub.Rus].torrent без регистрации
Золото ЗОЛОТАЯ РАЗДАЧА! СКАЧАННОЕ НЕ ЗАСЧИТЫВАЕТСЯ! Золото
Дата: Зарегистрирован   [ Тип: внутренний ] Как тут cкачать?
MAGNET ссылка
MAGNET ссылка


Скачать .torrent

226 KB

Статус: проверено DHT
Скачан: торрент - 139 раз, раздача полностью - 65 раз
Размер: 22,43 GB
Оценка:  - (Голосов: 0)
Поблагодарили: 2
Поделиться ссылкой на эту раздачу с друзьями:
В контактеFacebookОдноклассникиTwitterLivejournalМой МирLiveinternet
 

 
Показать сообщения:    


Вы не можете начинать темы
Вы не можете отвечать на сообщения
Вы не можете редактировать свои сообщения
Вы не можете удалять свои сообщения
Вы не можете голосовать в опросах
Вы не можете прикреплять файлы к сообщениям
Вы можете скачивать файлы