Loading...
Error

Скачать Пловец / The Swimmer (Фрэнк Перри, Сидни Поллак) [1968, драма, DVDRip-AVC] [MVO]+[Sub] торрент без регистрации

 
Статистика раздачи
Размер:  1,53 GB   |    Скачан:  108 раз

Полного источника не было: 21 минута

 
Автор Сообщение

Marsianka

[] 

Информация о фильме
Название: Пловец
Оригинальное название: The Swimmer
Год выхода: 1968
Жанр: драма
Режиссер: Фрэнк Перри / Frank Perry, Сидни Поллак / Sydney Pollack
В ролях: Берт Ланкастер, Джанет Лэндгард, Дженис Рул, Тони Биклей, Мардж Чэмпион, Нэнси Кашман, Билл Фиоре, Дэвид Гарфилд, Ким Хантер, Роуз Грегорио, Берни Хэмилтон

О фильме:
Обычный рекламный агент Недди Меррилл задается целью поплавать во всех соседских бассейнах. Помимо плавания, он терпеливо выслушивает истории из жизни друзей и знакомых, сопереживает их проблемам и старается поддержать соседей, как может. А оказавшись дома, вспоминает, что его собственная семья распалась, и его никто не ждет…


Страна: США
Студия: Columbia Pictures Corporation, Horizon Pictures, Dover Productions
Продолжительность: 01:35:08.703
Перевод: Профессиональный (многоголосый закадровый)

Файл
Кодек: h.264
Качество: DVDRip-AVC
Видео: 688x448 (16:9) @ 814x448 (анаморф), 23.976 fps, AVC, ~1921 Kbps, 0.260 bits/pixel

Английский, 48.0 KHz, AC3, 2 ch, 192 Kbps
Русский, 48.0 KHz, AC3, 2 ch, 192 Kbps
Субтитры: Английские, VobSub
Общее
Уникальный идентификатор : 203232113988785396603846813701905052020 (0x98E514D6942A3FBBB3A79AB33E07F174)
Полное имя : D:FilmsPlovets.1968.DVDRip-AVC.mkv
Формат : Matroska
Версия формата : Version 4 / Version 2
Размер файла : 1,53 Гбайт
Продолжительность : 1 ч. 35 м.
Общий поток : 2307 Кбит/сек
Дата кодирования : UTC 2013-08-18 14:17:55
Программа кодирования : mkvmerge v6.2.0 ('Promised Land') built on Apr 28 2013 12:22:01
Библиотека кодирования : libebml v1.3.0 + libmatroska v1.4.0

Видео
Идентификатор : 1
Формат : AVC
Формат/Информация : Advanced Video Codec
Профиль формата : High@L4.1
Параметр CABAC формата : Да
Параметр ReFrames формата : 16 кадров
Идентификатор кодека : V_MPEG4/ISO/AVC
Продолжительность : 1 ч. 35 м.
Битрейт : 1921 Кбит/сек
Ширина : 688 пикселей
Высота : 448 пикселей
Соотношение сторон : 16:9
Соотношение сторон в оригинале : 16:9
Режим частоты кадров : Постоянный
Частота кадров : 23,976 кадра/сек
Цветовое пространство : YUV
Субдискретизация насыщенности : 4:2:0
Битовая глубина : 8 бит
Тип развёртки : Прогрессивная
Бит/(Пиксели*Кадры) : 0.260
Размер потока : 1,25 Гбайт (81%)
Библиотека кодирования : x264 core 133 r2334 a3ac64b
Настройки программы : cabac=1 / ref=16 / deblock=1:0:0 / analyse=0x3:0x133 / me=umh / subme=10 / psy=1 / psy_rd=1.05:0.10 / mixed_ref=1 / me_range=32 / chroma_me=1 / trellis=2 / 8x8dct=1 / cqm=0 / deadzone=21,11 / fast_pskip=0 / chroma_qp_offset=-3 / threads=8 / lookahead_threads=2 / sliced_threads=0 / nr=0 / decimate=0 / interlaced=0 / bluray_compat=0 / constrained_intra=0 / bframes=10 / b_pyramid=2 / b_adapt=2 / b_bias=0 / direct=3 / weightb=1 / open_gop=0 / weightp=2 / keyint=240 / keyint_min=23 / scenecut=40 / intra_refresh=0 / rc_lookahead=60 / rc=2pass / mbtree=0 / bitrate=1921 / ratetol=1.0 / qcomp=0.60 / qpmin=0 / qpmax=60 / qpstep=4 / cplxblur=20.0 / qblur=0.5 / vbv_maxrate=50000 / vbv_bufsize=62500 / nal_hrd=none / ip_ratio=1.40 / pb_ratio=1.30 / aq=1:1.00
Default : Нет
Forced : Нет
Коэффициенты матрицы : BT.601

Аудио #1
Идентификатор : 2
Формат : AC-3
Формат/Информация : Audio Coding 3
Расширение режима : CM (complete main)
Параметр Endianness формата : Big
Идентификатор кодека : A_AC3
Продолжительность : 1 ч. 35 м.
Вид битрейта : Постоянный
Битрейт : 192 Кбит/сек
Каналы : 2 канала
Расположение каналов : Front: L R
Частота : 48,0 КГц
Битовая глубина : 16 бит
Метод сжатия : С потерями
Размер потока : 131 Мбайт (8%)
Язык : English
Default : Нет
Forced : Нет

Аудио #2
Идентификатор : 3
Формат : AC-3
Формат/Информация : Audio Coding 3
Расширение режима : CM (complete main)
Параметр Endianness формата : Big
Идентификатор кодека : A_AC3
Продолжительность : 1 ч. 35 м.
Вид битрейта : Постоянный
Битрейт : 192 Кбит/сек
Каналы : 2 канала
Расположение каналов : Front: L R
Частота : 48,0 КГц
Битовая глубина : 16 бит
Метод сжатия : С потерями
Размер потока : 131 Мбайт (8%)
Язык : Russian
Default : Да
Forced : Нет

Текст
Идентификатор : 4
Формат : VobSub
Режим смешивания : zlib
Идентификатор кодека : S_VOBSUB
Идентификатор кодека/Информация : The same subtitle format used on DVDs
Язык : English
Default : Нет
Forced : Нет

Меню
00:00:00.000 : en:Chapter 01
00:02:24.234 : en:Chapter 02
00:04:14.234 : en:Chapter 03
00:05:41.734 : en:Chapter 04
00:09:32.734 : en:Chapter 05
00:11:51.234 : en:Chapter 06
00:17:06.734 : en:Chapter 07
00:20:20.801 : en:Chapter 08
00:21:01.268 : en:Chapter 09
00:24:21.702 : en:Chapter 10
00:28:09.670 : en:Chapter 11
00:32:56.670 : en:Chapter 12
00:36:09.170 : en:Chapter 13
00:41:31.170 : en:Chapter 14
00:43:15.705 : en:Chapter 15
00:46:43.673 : en:Chapter 16
00:49:11.641 : en:Chapter 17
00:53:41.609 : en:Chapter 18
00:55:39.076 : en:Chapter 19
00:58:44.543 : en:Chapter 20
01:01:11.010 : en:Chapter 21
01:20:08.477 : en:Chapter 22
01:24:15.445 : en:Chapter 23
01:28:02.545 : en:Chapter 24
frame I:953 Avg QP:15.55 size: 60284
frame P:34441 Avg QP:18.64 size: 20781
frame B:101478 Avg QP:20.00 size: 5873
Исходник - R1 Columbia Pictures + синхр. зв. дорожка с русским переводом.
Релиз от: Temperest



Скачать Пловец.The.Swimmer.(Фрэнк.Перри.Сидни.Поллак).[1968.драма.DVDRip-AVC].[MVO]+[Sub].torrent без регистрации
Золото ЗОЛОТАЯ РАЗДАЧА! СКАЧАННОЕ НЕ ЗАСЧИТЫВАЕТСЯ! Золото
Дата: Зарегистрирован   [ Тип: внутренний ] Как тут cкачать?
MAGNET ссылка
MAGNET ссылка


Скачать .torrent

16 KB

Статус: проверено DHT
Скачан: торрент - 108 раз, раздача полностью - 1 раз
Размер: 1,53 GB
Оценка:  - (Голосов: 0)
Поблагодарили: 1
Поделиться ссылкой на эту раздачу с друзьями:
В контактеFacebookОдноклассникиTwitterLivejournalМой МирLiveinternet
 

 
Показать сообщения:    


Вы не можете начинать темы
Вы не можете отвечать на сообщения
Вы не можете редактировать свои сообщения
Вы не можете удалять свои сообщения
Вы не можете голосовать в опросах
Вы не можете прикреплять файлы к сообщениям
Вы можете скачивать файлы