Loading...
Error

Скачать Иногда великая идея... / Sometimes a Great Notion (Пол Ньюман) [1970, боевик, драма, приключения, BDRip AVC] [MVO]+[Оригинал]+[Sub] торрент без регистрации

 
Статистика раздачи
Размер:  2,63 GB   |    Скачан:  105 раз
Сидов:  1  [  0 KB/s  ]  
 
Автор Сообщение

Marsianka

[] 

Название: Иногда великая идея...
Оригинальное название: Sometimes a Great Notion
Год выпуска: 1970
Страна: США
Жанр: боевик, драма, приключения
Продолжительность: 01:54:35
Перевод: профессиональный многоголосый

Режиссёр: Пол Ньюман

В ролях: Пол Ньюман, Генри Фонда, Ли Ремик, Майкл Сарразин, Ричард Джэкел, Линда Лоусон, Клифф Поттс, Сэм Гилман, Ли Де Бру, Джим Берк, Рой Дженсон, Джо Маросс, Рой Пул, Чарльз Тайнер, Бенни Е. Доббинс, Алан Гиббс, Мики Гилберт, Терри Леонард, Фред Лернер, Гари МакЛарти, Хэл Нидэм, Дж.Н. Робертс, Дин Смит

Описание: В орегонских лесах на берегу великой реки Ваконды-Ауги в городке Ваконда жизнь подобна древнегреческой трагедии, без права на ошибку. Посреди слякоти осени в отчаянной гонке лесоповала, обречённой на забастовку, клан Стэмперов, записных упрямцев, бродяг и одиночек, живёт по своим законам, и нет такой силы, которая способна их сломить. Каждодневная борьба со стихией и непомерно тяжкий труд здесь обретают подлинно ветхозаветные масштабы. Обыкновенные люди вырастают до всесильных гигантов. История любви, работы, упорства и долга оборачивается величайшей притчей столетия. На этой земле полутонов - во множестве, однако не бывает полумер и ничего невозможно сделать вполсилы... Экранизация грандиознейшего романа XX века. Написал его Кен Кизи - великий американский писатель, гуру 1960-х, "веселый проказник" и "человек от земли", джек-лондоновский персонаж и глашатай новой реальности, создавший не менее гениальное произведение "Полет над гнездом кукушки".



Качество: BDRip AVC Сравнение с исходником
Формат: MKV
Видео: MPEG-4 AVC, 2577 Кбит/с, 1024x436, 23,976 кадра/с
Аудио 1: русский, AC3, 448 kbps, 6 ch, 48 kHz [профессиональный многоголосый]
Аудио 2: английский, AC3, 192 kbps, 2 ch, 48 kHz [оригинал]
Субтитры: английские (для слабослышащих)
Общее
Уникальный идентификатор : 194387618185706504217190793076517318684 (0x923DB18721B8C4B09B0E2638282F301C)
Полное имя : D:VideoИногда великая идея.1970.BDRip.AVC.mkv
Формат : Matroska
Версия формата : Version 4 / Version 2
Размер файла : 2,63 Гбайт
Продолжительность : 1 ч. 54 м.
Общий поток : 3282 Кбит/сек
Название фильма : BDRip -- STarankov
Дата кодирования : UTC 2015-06-01 12:02:10
Программа кодирования : mkvmerge v7.9.0 ('Birds') 64bit
Библиотека кодирования : libebml v1.3.1 + libmatroska v1.4.2
DURATION : 01:52:54.597000000
NUMBER_OF_FRAMES : 1473
NUMBER_OF_BYTES : 41383
_STATISTICS_WRITING_APP : mkvmerge v7.9.0 ('Birds') 64bit
_STATISTICS_WRITING_DATE_UTC : 2015-06-01 12:02:10
_STATISTICS_TAGS : BPS DURATION NUMBER_OF_FRAMES NUMBER_OF_BYTES

Видео
Идентификатор : 1
Формат : AVC
Формат/Информация : Advanced Video Codec
Профиль формата : High@L4.1
Параметр CABAC формата : Да
Параметр ReFrames формата : 9 кадров
Идентификатор кодека : V_MPEG4/ISO/AVC
Продолжительность : 1 ч. 54 м.
Битрейт : 2577 Кбит/сек
Ширина : 1024 пикселя
Высота : 436 пикселей
Соотношение сторон : 2,35:1
Режим частоты кадров : Постоянный
Частота кадров : 23,976 кадра/сек
Цветовое пространство : YUV
Субдискретизация насыщенности : 4:2:0
Битовая глубина : 8 бит
Тип развёртки : Прогрессивная
Бит/(Пиксели*Кадры) : 0.241
Размер потока : 2,06 Гбайт (79%)
Библиотека кодирования : x264 core 146 r2538 121396c
Настройки программы : cabac=1 / ref=9 / deblock=1:-1:-1 / analyse=0x3:0x113 / me=umh / subme=10 / psy=1 / psy_rd=1.00:0.15 / mixed_ref=1 / me_range=32 / chroma_me=1 / trellis=2 / 8x8dct=1 / cqm=0 / deadzone=21,11 / fast_pskip=1 / chroma_qp_offset=-3 / threads=6 / lookahead_threads=1 / sliced_threads=0 / nr=0 / decimate=1 / interlaced=0 / bluray_compat=0 / constrained_intra=0 / bframes=10 / b_pyramid=2 / b_adapt=2 / b_bias=0 / direct=1 / weightb=1 / open_gop=0 / weightp=2 / keyint=230 / keyint_min=23 / scenecut=40 / intra_refresh=0 / rc_lookahead=40 / rc=crf / mbtree=0 / crf=21.0 / qcomp=0.60 / qpmin=0 / qpmax=69 / qpstep=4 / vbv_maxrate=40000 / vbv_bufsize=50000 / crf_max=0.0 / nal_hrd=none / filler=0 / ip_ratio=1.40 / pb_ratio=1.30 / aq=1:1.00
Язык : English
Default : Да
Forced : Нет
DURATION : 01:54:35.160000000
NUMBER_OF_FRAMES : 164839
NUMBER_OF_BYTES : 2269281495
_STATISTICS_WRITING_APP : mkvmerge v7.9.0 ('Birds') 64bit
_STATISTICS_WRITING_DATE_UTC : 2015-06-01 12:02:10
_STATISTICS_TAGS : BPS DURATION NUMBER_OF_FRAMES NUMBER_OF_BYTES

Аудио #1
Идентификатор : 2
Формат : AC-3
Формат/Информация : Audio Coding 3
Расширение режима : CM (complete main)
Параметр Endianness формата : Big
Идентификатор кодека : A_AC3
Продолжительность : 1 ч. 54 м.
Вид битрейта : Постоянный
Битрейт : 448 Кбит/сек
Каналы : 6 каналов
Расположение каналов : Front: L C R, Side: L R, LFE
Частота : 48,0 КГц
Битовая глубина : 16 бит
Метод сжатия : С потерями
Размер потока : 367 Мбайт (14%)
Заголовок : MVO
Язык : Russian
Default : Да
Forced : Нет

Аудио #2
Идентификатор : 3
Формат : AC-3
Формат/Информация : Audio Coding 3
Расширение режима : CM (complete main)
Параметр Endianness формата : Big
Идентификатор кодека : A_AC3
Продолжительность : 1 ч. 54 м.
Вид битрейта : Постоянный
Битрейт : 192 Кбит/сек
Каналы : 2 канала
Расположение каналов : Front: L R
Частота : 48,0 КГц
Битовая глубина : 16 бит
Метод сжатия : С потерями
Размер потока : 157 Мбайт (6%)
Заголовок : Original
Язык : English
Default : Нет
Forced : Нет

Текст
Идентификатор : 4
Формат : UTF-8
Идентификатор кодека : S_TEXT/UTF8
Идентификатор кодека/Информация : UTF-8 Plain Text
Заголовок : анлийские (для слабослышащих)
Язык : English
Default : Нет
Forced : Нет



Скачать Иногда.великая.идея.Sometimes.a.Great.Notion.(Пол.Ньюман).[1970.боевик.драма.приключения.BDRip.AVC].[MVO]+[Оригинал]+[Sub].torrent без регистрации
Золото ЗОЛОТАЯ РАЗДАЧА! СКАЧАННОЕ НЕ ЗАСЧИТЫВАЕТСЯ! Золото
Дата: Зарегистрирован   [ Тип: внутренний ] Как тут cкачать?
MAGNET ссылка
MAGNET ссылка


Скачать .torrent

14 KB

Статус: проверено DHT
Скачан: торрент - 105 раз, раздача полностью - 0 раз
Размер: 2,63 GB
Оценка:  - (Голосов: 0)
Поблагодарили: 1
Поделиться ссылкой на эту раздачу с друзьями:
В контактеFacebookОдноклассникиTwitterLivejournalМой МирLiveinternet
 

 
Показать сообщения:    


Вы не можете начинать темы
Вы не можете отвечать на сообщения
Вы не можете редактировать свои сообщения
Вы не можете удалять свои сообщения
Вы не можете голосовать в опросах
Вы не можете прикреплять файлы к сообщениям
Вы можете скачивать файлы