Loading...
Error

Скачать Седьмой / Cheung Gong 7 hou (Стивен Чоу) [2008, фантастика, фэнтези, комедия, драма, семейный, BDRip-AVC] [MVO]+[Dub]+[Sub]x2 торрент без регистрации

 
Статистика раздачи
Размер:  2,99 GB   |    Скачан:  98 раз
Сидов:  1  [  0 KB/s  ]  
 
Автор Сообщение

Marsianka

[] 

Информация о фильме
Название: Седьмой
Оригинальное название: Cheung Gong 7 hou / CJ7
Год выхода: 2008
Жанр: фантастика, фэнтези, комедия, драма, семейный
Режиссер: Стивен Чоу
В ролях: Стивен Чоу, Ли Хуанг, Сюй Цзяо, Китти Чжан Юки, Мин Хун Фанг, Чи Чунг Лам, Ли Чунг-Шинг

О фильме: Дики и его отец живут в полуразвалившемся доме, где единственное развлечение - это ловля тараканов, а самый лакомый деликатес - подгнившие яблоки. Отец работает на стройке, пытаясь обеспечить Дики самое лучшее образование. Бедность преследует Дики насмешками соучеников, презрением некоторых из учителей, вечно дырявой обувью, которую отец Дики находит на свалке...Но однажды к ним в дом попадает забавный и непонятный предмет, похожий на мячик, который оказывается инопланетным существом, способным менять форму и творить магию...и с этого момента жизнь Дики круто меняется, сталкивая его с непредвиденными сложностями и казусными ситуациями...



Страна: Гонконг
Студия: Beijing Film Studio, China Film Group Corporation, Columbia Pictures Film Production Asia, Star Overseas
Продолжительность: 01:28:21
Перевод: Профессиональный многоголосый

Файл
Кодек: MPEG-4 AVC
Качество: BDRip-AVC
Видео: 3500 Кбит/с, 1024x428, 23.976 кадр/с

Аудио #1: Русский (AC3, 6 ch, 448 Кбит/с) / Профессиональный многоголосый (R5)
Аудио #2: Английский (AC3, 6 ch, 448 Кбит/с) / Дублированный
Аудио #3: Китайский (AC3, 6 ch, 448 Кбит/с)
Субтитры: Русские, английские
Семпл
Общее
Уникальный идентификатор : 232893409768667214860732224850914363142 (0xAF35A3A0CD496D158CC9E30A7F26C706)
Полное имя : D:Мои РипыCJ7.2008.x264.BDRip.AVC.MediaClub.mkv
Формат : Matroska
Версия формата : Version 4 / Version 2
Размер файла : 2,99 Гбайт
Продолжительность : 1 ч. 28 м.
Общий поток : 4841 Кбит/сек
Название фильма : = MediaClub = rip by krakatuq
Дата кодирования : UTC 2015-06-02 11:22:47
Программа кодирования : mkvmerge v6.6.0 ('The Edge Of The In Between') built on Dec 1 2013 17:55:00
Библиотека кодирования : libebml v1.3.0 + libmatroska v1.4.1

Видео
Идентификатор : 1
Формат : AVC
Формат/Информация : Advanced Video Codec
Профиль формата : High@L4.1
Параметр CABAC формата : Да
Параметр ReFrames формата : 10 кадров
Идентификатор кодека : V_MPEG4/ISO/AVC
Продолжительность : 1 ч. 28 м.
Битрейт : 3500 Кбит/сек
Ширина : 1024 пикселя
Высота : 428 пикселей
Соотношение сторон : 2,40:1
Режим частоты кадров : Постоянный
Частота кадров : 23,976 кадра/сек
Цветовое пространство : YUV
Субдискретизация насыщенности : 4:2:0
Битовая глубина : 8 бит
Тип развёртки : Прогрессивная
Бит/(Пиксели*Кадры) : 0.333
Размер потока : 2,10 Гбайт (70%)
Заголовок : CJ7.2008.x264.BDRip.AVC.MediaClub
Библиотека кодирования : x264 core 142 r2409+42 04be48a tMod [8-bit@4:2:0 X86]
Настройки программы : cabac=1 / ref=10 / deblock=1:-2:-2 / analyse=0x3:0x133 / me=umh / subme=11 / psy=1 / fade_compensate=0.00 / psy_rd=1.00:0.15 / mixed_ref=1 / me_range=32 / chroma_me=1 / trellis=2 / 8x8dct=1 / cqm=0 / deadzone=21,11 / fast_pskip=0 / chroma_qp_offset=-3 / threads=3 / lookahead_threads=1 / sliced_threads=0 / nr=0 / decimate=0 / interlaced=0 / bluray_compat=0 / constrained_intra=0 / fgo=0 / bframes=9 / b_pyramid=2 / b_adapt=2 / b_bias=0 / direct=3 / weightb=1 / open_gop=0 / weightp=2 / keyint=240 / keyint_min=23 / scenecut=40 / intra_refresh=0 / rc=2pass / mbtree=0 / bitrate=3500 / ratetol=1.0 / qcomp=0.60 / qpmin=0:0:0 / qpmax=69:69:69 / qpstep=4 / cplxblur=20.0 / qblur=0.5 / ip_ratio=1.40 / pb_ratio=1.30 / aq=1:1.00 / aq-sensitivity=10.00 / aq-factor=1.00:1.00:1.00 / aq2=0 / aq3=0
Язык : Chinese
Default : Да
Forced : Нет

Аудио #1
Идентификатор : 2
Формат : AC-3
Формат/Информация : Audio Coding 3
Расширение режима : CM (complete main)
Параметр Endianness формата : Big
Идентификатор кодека : A_AC3
Продолжительность : 1 ч. 28 м.
Вид битрейта : Постоянный
Битрейт : 448 Кбит/сек
Каналы : 6 каналов
Расположение каналов : Front: L C R, Side: L R, LFE
Частота : 48,0 КГц
Битовая глубина : 16 бит
Метод сжатия : С потерями
Размер потока : 283 Мбайт (9%)
Заголовок : TRACK_01_MVO_RUS_R5
Язык : Russian
Default : Да
Forced : Да

Аудио #2
Идентификатор : 3
Формат : AC-3
Формат/Информация : Audio Coding 3
Расширение режима : CM (complete main)
Параметр Endianness формата : Big
Идентификатор кодека : A_AC3
Продолжительность : 1 ч. 28 м.
Вид битрейта : Постоянный
Битрейт : 448 Кбит/сек
Каналы : 6 каналов
Расположение каналов : Front: L C R, Side: L R, LFE
Частота : 48,0 КГц
Битовая глубина : 16 бит
Метод сжатия : С потерями
Размер потока : 283 Мбайт (9%)
Заголовок : TRACK_02_DUB_ENG
Язык : English
Default : Нет
Forced : Нет

Аудио #3
Идентификатор : 4
Формат : AC-3
Формат/Информация : Audio Coding 3
Расширение режима : CM (complete main)
Параметр Endianness формата : Big
Идентификатор кодека : A_AC3
Продолжительность : 1 ч. 28 м.
Вид битрейта : Постоянный
Битрейт : 448 Кбит/сек
Каналы : 6 каналов
Расположение каналов : Front: L C R, Side: L R, LFE
Частота : 48,0 КГц
Битовая глубина : 16 бит
Метод сжатия : С потерями
Размер потока : 283 Мбайт (9%)
Заголовок : TRACK_03_ORIGINAL_CHI
Язык : Chinese
Default : Нет
Forced : Нет

Текст #1
Идентификатор : 5
Формат : UTF-8
Идентификатор кодека : S_TEXT/UTF8
Идентификатор кодека/Информация : UTF-8 Plain Text
Заголовок : TEXT_01_SUB_RUS
Язык : Russian
Default : Нет
Forced : Нет

Текст #2
Идентификатор : 6
Формат : UTF-8
Идентификатор кодека : S_TEXT/UTF8
Идентификатор кодека/Информация : UTF-8 Plain Text
Заголовок : TEXT_02_SUB_ENG
Язык : English
Default : Нет
Forced : Нет

Меню
00:00:00.000 : en:00:00:00.000
00:05:00.000 : en:00:05:00.000
00:10:00.000 : en:00:10:00.000
00:15:00.000 : en:00:15:00.000
00:20:00.000 : en:00:20:00.000
00:25:00.000 : en:00:25:00.000
00:30:00.000 : en:00:30:00.000
00:35:00.000 : en:00:35:00.000
00:40:00.000 : en:00:40:00.000
00:45:00.000 : en:00:45:00.000
00:50:00.000 : en:00:50:00.000
00:55:00.000 : en:00:55:00.000
01:00:00.000 : en:01:00:00.000
01:05:00.000 : en:01:05:00.000
01:10:00.000 : en:01:10:00.000
01:15:00.000 : en:01:15:00.000
01:20:00.000 : en:01:20:00.000
01:25:00.000 : en:01:25:00.000

x264 log
x264 [info]: frame I:949 Avg QP:15.74 size: 97833
x264 [info]: frame P:26864 Avg QP:18.36 size: 35916
x264 [info]: frame B:99291 Avg QP:19.69 size: 12669
Релиз от: | Автор рипа:



Скачать Седьмой.Cheung.Gong.7.hou.(Стивен.Чоу).[2008.фантастика.фэнтези.комедия.драма.семейный.BDRip-AVC].[MVO]+[Dub]+[Sub]x2.torrent без регистрации
Золото ЗОЛОТАЯ РАЗДАЧА! СКАЧАННОЕ НЕ ЗАСЧИТЫВАЕТСЯ! Золото
Дата: Зарегистрирован   [ Тип: внутренний ] Как тут cкачать?
MAGNET ссылка
MAGNET ссылка


Скачать .torrent

16 KB

Статус: проверено DHT
Скачан: торрент - 98 раз, раздача полностью - 14 раз
Размер: 2,99 GB
Оценка:  - (Голосов: 0)
Поблагодарили: 1
Поделиться ссылкой на эту раздачу с друзьями:
В контактеFacebookОдноклассникиTwitterLivejournalМой МирLiveinternet
 

 
Показать сообщения:    


Вы не можете начинать темы
Вы не можете отвечать на сообщения
Вы не можете редактировать свои сообщения
Вы не можете удалять свои сообщения
Вы не можете голосовать в опросах
Вы не можете прикреплять файлы к сообщениям
Вы можете скачивать файлы