Loading...
Error

Скачать Плетеный человек / The Wicker Man (Нил ЛаБут) [2006, ужасы, триллер, детектив, HDRip-AVC] [Лицензия] [Dub]+[Sub] торрент без регистрации

 
Статистика раздачи
Размер:  2,18 GB   |    Скачан:  123 раза
Сидов:  1  [  0 KB/s  ]  
 
Автор Сообщение

Marsianka

[] 

Название: Плетеный человек
Оригинальное название: The Wicker Man
Год выпуска: 2006
Жанр: ужасы, триллер, детектив
Выпущено: США, Германия, Канада, Alcon Entertainment, Brightlight Pictures Inc., Emmett/Furla Films, Equity Pictures Medienfonds GmbH & Co. KG III, Millennium Films, Nu Image Entertainment GmbH, Redbus Pictures, Saturn Films, Warner Bros. Pictures, Wicker Man Productions
Продолжительность: 01:41:42
Перевод: Дублированный
Субтитры: русские

Режиссер: Нил ЛаБут

В ролях: Николас Кейдж, Эллен Бёрстин, Кейт Бихан, Фрэнсис Конрой, Молли Паркер, Лили Собески, Дайан Делано, Майкл Уайзмен, Эрика-Шэй Гэйр, Криста Кэмпбелл, Эмили Холмс, Мэттью Уолкер, Мэри Блэк, Кристин Уиллз, Софи Хью, Дэвид Пурвис, Ксанта Рэдли, Таня Солнье, Анна Ван Хуфт, Талия Рейнджер, Кендалл Кросс, Саймон Лонгмор, Жаклин Роббинс, Джойс Роббинс, Аарон Экхарт, Джеймс Франко, Джейсон Риттер, Моник Гэндертон, Талия Роджерс

О фильме: Бывший полицейский Эдвард Маюлис получает письмо от своей давней подруги, в котором она просит найти ее пропавшую дочь. Расследуя исчезновение маленькой девочки, Эдвард попадает на странный остров с очень странными людьми и обнаруживает, что пропажа девочки связана с существующим на острове тайным обществом. Непонятные символы, пугающие обряды — во всем этом придется разобраться полицейскому, чтобы узнать страшную тайну…



Качество: HDRip-AVC
Видео: AVC, 1024x428 (2.35:1), 23.976 fps, 2 622 Kbps (0.250 bit/pixel)
Аудио: AC-3, 48.0 KHz, 6 ch, 448 Kbps, CBR (Russian)
Релиз от: FAGOT100
Полное имя : D:Плетёный человек. 2006 (Н.Кейдж).mkv
Формат : Matroska
Версия формата : Version 2
Размер файла : 2,18 Гбайт
Продолжительность : 1 ч. 41 м.
Общий поток : 3071 Кбит/сек
Название фильма : FAGOT100
Дата кодирования : UTC 2015-06-04 11:24:32
Программа кодирования : mkvmerge v5.3.0 ('I could have danced') built on Feb 9 2012 10:38:07
Библиотека кодирования : libebml v1.2.3 + libmatroska v1.3.0
Attachment : Yes

Видео
Идентификатор : 1
Формат : AVC
Формат/Информация : Advanced Video Codec
Профиль формата : High@L4.1
Параметр CABAC формата : Да
Параметр ReFrames формата : 9 кадров
Идентификатор кодека : V_MPEG4/ISO/AVC
Продолжительность : 1 ч. 41 м.
Битрейт : 2622 Кбит/сек
Ширина : 1024 пикселя
Высота : 428 пикселей
Соотношение сторон : 2,40:1
Режим частоты кадров : Постоянный
Частота кадров : 23,976 кадра/сек
Цветовое пространство : YUV
Субдискретизация насыщенности : 4:2:0
Битовая глубина : 8 бит
Тип развёртки : Прогрессивная
Бит/(Пиксели*Кадры) : 0.250
Размер потока : 1,82 Гбайт (83%)
Библиотека кодирования : x264 core 146 r2538 121396c
Настройки программы : cabac=1 / ref=9 / deblock=1:-3:-3 / analyse=0x3:0x133 / me=umh / subme=10 / psy=1 / psy_rd=1.00:0.00 / mixed_ref=1 / me_range=32 / chroma_me=1 / trellis=2 / 8x8dct=1 / cqm=0 / deadzone=21,11 / fast_pskip=1 / chroma_qp_offset=-2 / threads=12 / lookahead_threads=1 / sliced_threads=0 / nr=0 / decimate=0 / interlaced=0 / bluray_compat=0 / constrained_intra=0 / bframes=6 / b_pyramid=2 / b_adapt=2 / b_bias=0 / direct=3 / weightb=1 / open_gop=0 / weightp=2 / keyint=240 / keyint_min=23 / scenecut=40 / intra_refresh=0 / rc=2pass / mbtree=0 / bitrate=2622 / ratetol=1.0 / qcomp=0.60 / qpmin=0 / qpmax=69 / qpstep=4 / cplxblur=20.0 / qblur=0.5 / ip_ratio=1.40 / pb_ratio=1.30 / aq=1:1.00
Default : Да
Forced : Нет

Аудио
Идентификатор : 2
Формат : AC-3
Формат/Информация : Audio Coding 3
Расширение режима : CM (complete main)
Параметр Endianness формата : Big
Идентификатор кодека : A_AC3
Продолжительность : 1 ч. 41 м.
Вид битрейта : Постоянный
Битрейт : 448 Кбит/сек
Каналы : 6 каналов
Расположение каналов : Front: L C R, Side: L R, LFE
Частота : 48,0 КГц
Битовая глубина : 16 бит
Метод сжатия : С потерями
Задержка видео : 12 мс.
Размер потока : 326 Мбайт (15%)
Язык : Russian
Default : Да
Forced : Нет

Текст
Идентификатор : 3
Формат : UTF-8
Идентификатор кодека : S_TEXT/UTF8
Идентификатор кодека/Информация : UTF-8 Plain Text
Язык : Russian
Default : Да
Forced : Нет



Скачать Плетеный.человек.The.Wicker.Man.(Нил.ЛаБут).[2006.ужасы.триллер.детектив.HDRip-AVC].[Лицензия].[Dub]+[Sub].torrent без регистрации
Золото ЗОЛОТАЯ РАЗДАЧА! СКАЧАННОЕ НЕ ЗАСЧИТЫВАЕТСЯ! Золото
Дата: Зарегистрирован   [ Тип: внутренний ] Как тут cкачать?
MAGNET ссылка
MAGNET ссылка


Скачать .torrent

12 KB

Статус: проверено DHT
Скачан: торрент - 123 раз, раздача полностью - 9 раз
Размер: 2,18 GB
Оценка:  - (Голосов: 0)
Поблагодарили: 1
Поделиться ссылкой на эту раздачу с друзьями:
В контактеFacebookОдноклассникиTwitterLivejournalМой МирLiveinternet
 

 
Показать сообщения:    


Вы не можете начинать темы
Вы не можете отвечать на сообщения
Вы не можете редактировать свои сообщения
Вы не можете удалять свои сообщения
Вы не можете голосовать в опросах
Вы не можете прикреплять файлы к сообщениям
Вы можете скачивать файлы