Loading...
Error

Скачать Афера / The Sting (Джордж Рой Хилл / George Roy Hill) [1973 г., драма, комедия, криминал, BDRip] [DUB] торрент без регистрации

 
Статистика раздачи
Размер:  1,46 GB   |    Скачан:  128 раз
Сидов:  1  [  0 KB/s  ]  
 
Автор Сообщение

leon030982

[] 

Афера / The Sting
Год выпуска: 1973
Страна: США
Жанр: драма, комедия, криминал
Продолжительность: 02:09:16
Перевод: Профессиональный Полное дублирование [Первый канал]
Cубтитры: нет

Режиссёр: Джордж Рой Хилл / George Roy Hill
В ролях:
Пол Ньюман, Роберт Шоу, Роберт Редфорд, Чарльз Дёрнинг, Рей Уолстон, Айлин Бреннан, Харольд Гулд, Джон Хеффернан, Дэна Элкар, Джек Кихоу, Димитра Арлисс, Роберт Эрл Джонс, Джеймс Слойан, Чарльз Диркоп, Ли Пол, Сэлли Кёркленд, Эвон Лонг, Арч Джонсон, Эд Бэйки, Брэд Салливан, Джон Квэйд, Ларри Д. Манн, Леонард Барр, Полин Майерс, Джо Торнаторе, Джек Коллинз, Том Спрэтли, Кеннет О’Брайэн, Кен Сэнсом, Уильям 'Билли' Бенедикт, Та-Таниша

Описание:
В 1930-е годы двое отпетых мошенников пытаются отомстить главарю мафии за смерть их общего друга с помощью одной из самых неожиданных афер в истории кино, которая к тому же заканчивается удивительным и забавным образом.
Производственный период: 22 января — апрель 1973.



Качество видео: BDRip (спасибо Grimlen)
Формат видео: AVI
Видео кодек: XviD
Аудио кодек: АС3
Видео: 704x384 (1.83:1), 23.976 fps, XviD, ~1414 kbps avg, 0.22 bit/pixel
Аудио: 48 kHz, AC3 Dolby Digital, 2/0 (L,R) ch, ~192.00 kbps avg
Сценарист фильма Дэвид С. Уорд придумал историю «Аферы», когда работал над другим сценарием — к фильму Алана Майерсона «Блюз Стильярда» (1973). В последнем фильме была сцена карточной игры, и описывая ее, Уорд внимательно изучил тему карт и карточных шулеров. Так родилась идея, которую сразу же поддержал продюсер (и будущий режиссер) Тони Билл. Он также привлек к фильму двух других продюсеров — супругов Джулию и Майкла Филлипсов.

Уорд писал сценарий сразу с расчетом на Роберта Редфорда. Но актеру не очень понравилась роль Джонни Хукера, и он отказался. И даже когда он изменил решение, все еще не был уверен, что фильм получится. Если бы Редфорд не передумал, Хукера сыграл бы Джек Николсон. Впервые посмотреть фильм целиком Роберт Редфорд удосужился лишь в июне 2004-го.
Сценарий Уорда случайно попался на глаза Джорджу Рою Хиллу. Хилл моментально ухватился за него и сразу же пригласил в проект Пола Ньюмана.
Во время съемок Хилл страстно мечтал выйти за пределы павильонов. Его отговаривал опытный художник Генри Бамстед, уверявший режиссера, что будет крайне сложно получить разрешение на то, чтобы перекрыть движение на улице. В результате, на натурные съемки в Лос-Анджелесе и Чикаго ушло всего несколько дней.
В течение двух лет мэр Чикаго Ричард Дж. Дэйли отказывался пускать в город киношников, если они собирались рассказать о Чикаго что-нибудь негативное. Тем не менее, он сделал исключения для создателей «Аферы», пустив их на три дня.
Дойл Лоннерган не был по сценарию хромым. Но Роберт Шоу перед съемками повредил лодыжку; его герою пришлось придумать хромоту.
Персонаж по имени Джонни Хукер получил свое имя в честь легенды блюза Джона Ли Хукера.
Музыкальное настроение в фильме создает рэгтайм; были использованы композиции Скотта Джоплина 1900-1910-х годов. Между тем, в 1930-е, когда происходит действие «Аферы», рэгтайм практически вышел из моды; тем не менее, благодаря ленте интерес к этому музыкальному жанру был возрожден.
Джонни Хукер сталкивается с Лоннерганом в той же закусочной, где спустя 12 лет Марти МакФлай встретится со своим отцом — в фантастической комедии Роберта Земекиса «Назад в будущее» (1985).
Награды:
Оскар, 1974 год
Победитель: Лучший фильм, Лучший режиссер (Джордж Рой Хилл), Лучший адаптированный сценарий по мотивам ранее не опубликованного материала или документальных фактов, Лучшие декорации, Лучшие костюмы, Лучший монтаж, Лучшая музыкальная адаптация
Номинации: Лучшая мужская роль (Роберт Редфорд), Лучшая работа оператора, Лучший звук
Золотой глобус, 1974 год
Номинации: Лучший сценарий
General
Complete name : D:\Afera.1973.BDRip.avi
Format : AVI
Format/Info : Audio Video Interleave
File size : 1.46 GiB
Duration : 2h 9mn
Overall bit rate : 1 615 Kbps
Writing application : VirtualDubMod 1.5.10.3 (build 2550/release)
Writing library : VirtualDubMod build 2550/release
Video
ID : 0
Format : MPEG-4 Visual
Format profile : Advanced Simple@L5
Format settings, BVOP : 1
Format settings, QPel : No
Format settings, GMC : No warppoints
Format settings, Matrix : Custom
Codec ID : XVID
Codec ID/Hint : XviD
Duration : 2h 9mn
Bit rate : 1 414 Kbps
Width : 704 pixels
Height : 384 pixels
Display aspect ratio : 16:9
Frame rate : 23.976 fps
Color space : YUV
Chroma subsampling : 4:2:0
Bit depth : 8 bits
Scan type : Progressive
Compression mode : Lossy
Bits/(Pixel*Frame) : 0.218
Stream size : 1.28 GiB (88%)
Writing library : XviD 64
Audio
ID : 1
Format : AC-3
Format/Info : Audio Coding 3
Mode extension : CM (complete main)
Codec ID : 2000
Duration : 2h 9mn
Bit rate mode : Constant
Bit rate : 192 Kbps
Channel(s) : 2 channels
Channel positions : Front: L R
Sampling rate : 48.0 KHz
Bit depth : 16 bits
Compression mode : Lossy
Stream size : 178 MiB (12%)
Alignment : Split accross interleaves
Interleave, duration : 42 ms (1.00 video frame)
Interleave, preload duration : 500 ms



Скачать Афера.The.Sting.(Джордж.Рой.Хилл.George.Roy.Hill).[1973.г.драма.комедия.криминал.BDRip].[DUB].torrent без регистрации
Золото ЗОЛОТАЯ РАЗДАЧА! СКАЧАННОЕ НЕ ЗАСЧИТЫВАЕТСЯ! Золото
Дата: Зарегистрирован   [ Тип: внутренний ] Как тут cкачать?
MAGNET ссылка
MAGNET ссылка


Скачать .torrent

15 KB

Статус: проверено DHT
Скачан: торрент - 128 раз, раздача полностью - 12 раз
Размер: 1,46 GB
Оценка:  5 (Голосов: 2)
Поблагодарили: 2
Поделиться ссылкой на эту раздачу с друзьями:
В контактеFacebookОдноклассникиTwitterLivejournalМой МирLiveinternet
 

 
Показать сообщения:    


Вы не можете начинать темы
Вы не можете отвечать на сообщения
Вы не можете редактировать свои сообщения
Вы не можете удалять свои сообщения
Вы не можете голосовать в опросах
Вы не можете прикреплять файлы к сообщениям
Вы можете скачивать файлы