Loading...
Error

Скачать Повелитель собак / Leviatan / Monster Dog (Клаудио Фрагассо) [1984 г., ужасы, HDTVRip-AVC] [DVO (НТВ+)] торрент без регистрации

 
Статистика раздачи
Размер:  1,45 GB   |    Скачан:  100 раз
Сидов:  1  [  0 KB/s  ]  
 
Автор Сообщение

durik

[] 

Повелитель собак / Leviatán

Информация о фильме
Название: Повелитель собак
Оригинальное название: Leviatán / Monster Dog
Год выхода: 1984
Жанр: ужасы
Режиссер: Клаудио Фрагассо
В ролях: Элис Купер, Виктория Вера, Карлос Сантурио, Мария Хосе Сарса, Пепита Джеймс, Эмилио Линдер, Рикардо Паласиос, Луис Малуэнда, Бернабе Барта Барри, Чарли Браво

О фильме:
Известный рок-музыкант Винс Рейвен готовится к съёмкам нового клипа и отправляется в далекие места, где провел свое детство. В детстве с его отцом произошла трагедия: он страдал каким-то заболеванием, от которого выл на луну и не спал по ночам во время полнолуния. Однажды местные жители обнаружили его рядом с задранной овцой и решили, что в него вселилась нечистая сила.
На глазах у маленького сына они убили его отца, после чего Винса забрали жить в большой город. И вот теперь через много лет он возвращается в эти жуткие места, населенные суеверными людишками, чтобы вспомнить прошлое и заодно снять новый клип. Местные жители не забыли той страшной истории, а тут ещё и прокатившаяся по деревне волна смертей, связанная с собаками… в общем, теперь мишенью становится сам Винс, но является ли он оборотнем или же это дело рук другого человека?



Страна: Испания, США, Пуэрто Рико
Студия: Continental Motion Pictures, M&C Films, Royal Films
Продолжительность: 01:20:29
Перевод: Профессиональный (двухголосый закадровый) [НТВ+]

Файл
Кодек: AVC
Качество: HDTVRip-AVC
Видео: 1024x568, 2394 kbps, 25 fps, 0,165 Bits/(Pixel*Frame)
Звук: AC3, 48 kHz, 2 ch, 192 kbps
Субтитры: Нет
General
Unique ID : 197254767036026326119571217484811128713 (0x9465E2E154C90714A7E6FB87B0E4CF89)
Complete name : H:Leviatan.1984.HDTVRip-AVC_by_Bathory.mkv
Format : Matroska
Format version : Version 2
File size : 1.45 GiB
Duration : 1h 20mn
Overall bit rate : 2 587 Kbps
Encoded date : UTC 2015-06-06 18:12:16
Writing application : mkvmerge v6.1.0 ('Old Devil') built on Mar 4 2013 09:10:42
Writing library : libebml v1.3.0 + libmatroska v1.4.0

Video
ID : 1
Format : AVC
Format/Info : Advanced Video Codec
Format profile : High@L4.1
Format settings, CABAC : Yes
Format settings, ReFrames : 12 frames
Codec ID : V_MPEG4/ISO/AVC
Duration : 1h 20mn
Bit rate : 2 394 Kbps
Width : 1 024 pixels
Height : 568 pixels
Display aspect ratio : 16:9
Frame rate mode : Constant
Frame rate : 25.000 fps
Color space : YUV
Chroma subsampling : 4:2:0
Bit depth : 8 bits
Scan type : Progressive
Bits/(Pixel*Frame) : 0.165
Stream size : 1.32 GiB (91%)
Writing library : x264 core 130 r2273 b3065e6
Encoding settings : cabac=1 / ref=12 / deblock=1:-3:-3 / analyse=0x3:0x132 / me=umh / subme=11 / psy=1 / psy_rd=1.00:0.10 / mixed_ref=1 / me_range=32 / chroma_me=1 / trellis=2 / 8x8dct=1 / cqm=0 / deadzone=21,11 / fast_pskip=0 / chroma_qp_offset=-3 / threads=12 / lookahead_threads=3 / sliced_threads=0 / nr=0 / decimate=1 / interlaced=0 / bluray_compat=0 / constrained_intra=0 / bframes=16 / b_pyramid=2 / b_adapt=2 / b_bias=0 / direct=3 / weightb=1 / open_gop=0 / weightp=2 / keyint=250 / keyint_min=25 / scenecut=40 / intra_refresh=0 / rc_lookahead=60 / rc=2pass / mbtree=1 / bitrate=2394 / ratetol=1.0 / qcomp=0.60 / qpmin=0 / qpmax=69 / qpstep=4 / cplxblur=20.0 / qblur=0.5 / ip_ratio=1.40 / aq=1:1.00
Default : Yes
Forced : No

Audio
ID : 2
Format : AC-3
Format/Info : Audio Coding 3
Mode extension : CM (complete main)
Format settings, Endianness : Big
Codec ID : A_AC3
Duration : 1h 20mn
Bit rate mode : Constant
Bit rate : 192 Kbps
Channel(s) : 2 channels
Channel positions : Front: L R
Sampling rate : 48.0 KHz
Compression mode : Lossy
Stream size : 111 MiB (7%)
Default : Yes
Forced : No
Релиз от:

Автор рипа: Bathory



Скачать Повелитель.собак.Leviatan.Monster.Dog.(Клаудио.Фрагассо).[1984.г.ужасы.HDTVRip-AVC].[DVO.(НТВ+)].torrent без регистрации
Золото ЗОЛОТАЯ РАЗДАЧА! СКАЧАННОЕ НЕ ЗАСЧИТЫВАЕТСЯ! Золото
Дата: Зарегистрирован   [ Тип: внутренний ] Как тут cкачать?
MAGNET ссылка
MAGNET ссылка


Скачать .torrent

15 KB

Статус: проверено DHT
Скачан: торрент - 100 раз, раздача полностью - 3 раз
Размер: 1,45 GB
Оценка:  - (Голосов: 0)
Поблагодарили: 2
Поделиться ссылкой на эту раздачу с друзьями:
В контактеFacebookОдноклассникиTwitterLivejournalМой МирLiveinternet
 

 
Показать сообщения:    


Вы не можете начинать темы
Вы не можете отвечать на сообщения
Вы не можете редактировать свои сообщения
Вы не можете удалять свои сообщения
Вы не можете голосовать в опросах
Вы не можете прикреплять файлы к сообщениям
Вы можете скачивать файлы