Loading...
Error

Скачать Дело фирмы / Company Business (Николас Мейер) [1990 г., боевик, триллер, драма, HDTVRip-AVC] [DVO (НТВ+)] торрент без регистрации

 
Статистика раздачи
Размер:  1,45 GB   |    Скачан:  124 раза
Сидов:  1  [  0 KB/s  ]  
 
Автор Сообщение

durik

[] 

Дело фирмы / Company Business

Информация о фильме
Название: Дело фирмы
Оригинальное название: Company Business
Год выхода: 1990
Жанр: боевик, триллер, драма
Режиссер: Николас Мейер
В ролях: Джин Хэкмен, Михаил Барышников, Кертвуд Смит, Терри О`Куинн, Дэниэл фон Барген, Олег Рудник, Жеральдин Данон, Надим Савалха, Майкл Томлинсон, Говард МакДжиллин

О фильме:
Судьба свела стареющего агента ЦРУ и бывшего резидента КГБ в довольно щекотливом деле. Американцы пожелали выкупить у КГБ своего агента, арестованного в России за шпионаж. За 2 миллиона долларов и провалившегося русского резидента в нагрузку. Однако, в момент передачи все пошло наперекосяк. Что оставалось делать двум бывшим непримиримым врагам, оказавшимся в чужой стране с чемоданом чужих денег. Только стать друзьями и обвести вокруг пальца обе могучие спецслужбы.



Страна: США
Студия: Pathé Entertainment, MGM
Продолжительность: 01:34:14
Перевод: Профессиональный (двухголосый закадровый [НТВ+]

Файл
Кодек: AVC
Качество: HDTVRip-AVC
Видео: 1024x576, 2017 kbps, 25 fps, 0,137 Bits/(Pixel*Frame)
Звук: AC3, 48 kHz, 2 ch, 192 kbps
Субтитры: Нет
General
Unique ID : 193921656626715592957630072572250286984 (0x91E3F3D96A8880AAA9E059C41985EB88)
Complete name : H:Company Business.1990.HDTVRip-AVC_by_Bathory.mkv
Format : Matroska
Format version : Version 2
File size : 1.45 GiB
Duration : 1h 34mn
Overall bit rate : 2 210 Kbps
Encoded date : UTC 2015-06-06 23:21:19
Writing application : mkvmerge v6.1.0 ('Old Devil') built on Mar 4 2013 09:10:42
Writing library : libebml v1.3.0 + libmatroska v1.4.0

Video
ID : 1
Format : AVC
Format/Info : Advanced Video Codec
Format profile : High@L4.1
Format settings, CABAC : Yes
Format settings, ReFrames : 12 frames
Codec ID : V_MPEG4/ISO/AVC
Duration : 1h 34mn
Bit rate : 2 017 Kbps
Width : 1 024 pixels
Height : 576 pixels
Display aspect ratio : 16:9
Frame rate mode : Constant
Frame rate : 25.000 fps
Color space : YUV
Chroma subsampling : 4:2:0
Bit depth : 8 bits
Scan type : Progressive
Bits/(Pixel*Frame) : 0.137
Stream size : 1.30 GiB (89%)
Writing library : x264 core 130 r2273 b3065e6
Encoding settings : cabac=1 / ref=12 / deblock=1:-3:-3 / analyse=0x3:0x132 / me=umh / subme=11 / psy=1 / psy_rd=1.00:0.10 / mixed_ref=1 / me_range=32 / chroma_me=1 / trellis=2 / 8x8dct=1 / cqm=0 / deadzone=21,11 / fast_pskip=0 / chroma_qp_offset=-3 / threads=12 / lookahead_threads=3 / sliced_threads=0 / nr=0 / decimate=1 / interlaced=0 / bluray_compat=0 / constrained_intra=0 / bframes=16 / b_pyramid=2 / b_adapt=2 / b_bias=0 / direct=3 / weightb=1 / open_gop=0 / weightp=2 / keyint=250 / keyint_min=25 / scenecut=40 / intra_refresh=0 / rc_lookahead=60 / rc=2pass / mbtree=1 / bitrate=2017 / ratetol=1.0 / qcomp=0.60 / qpmin=0 / qpmax=69 / qpstep=4 / cplxblur=20.0 / qblur=0.5 / ip_ratio=1.40 / aq=1:1.00
Default : Yes
Forced : No

Audio
ID : 2
Format : AC-3
Format/Info : Audio Coding 3
Mode extension : CM (complete main)
Format settings, Endianness : Big
Codec ID : A_AC3
Duration : 1h 34mn
Bit rate mode : Constant
Bit rate : 192 Kbps
Channel(s) : 2 channels
Channel positions : Front: L R
Sampling rate : 48.0 KHz
Compression mode : Lossy
Stream size : 129 MiB (9%)
Default : Yes
Forced : No
Релиз от:

Автор рипа: Bathory



Скачать Дело.фирмы.Company.Business.(Николас.Мейер).[1990.г.боевик.триллер.драма.HDTVRip-AVC].[DVO.(НТВ+)].torrent без регистрации
Золото ЗОЛОТАЯ РАЗДАЧА! СКАЧАННОЕ НЕ ЗАСЧИТЫВАЕТСЯ! Золото
Дата: Зарегистрирован   [ Тип: внутренний ] Как тут cкачать?
MAGNET ссылка
MAGNET ссылка


Скачать .torrent

15 KB

Статус: проверено DHT
Скачан: торрент - 124 раз, раздача полностью - 11 раз
Размер: 1,45 GB
Оценка:  - (Голосов: 0)
Поблагодарили: 3
Поделиться ссылкой на эту раздачу с друзьями:
В контактеFacebookОдноклассникиTwitterLivejournalМой МирLiveinternet
 

 
Показать сообщения:    


Вы не можете начинать темы
Вы не можете отвечать на сообщения
Вы не можете редактировать свои сообщения
Вы не можете удалять свои сообщения
Вы не можете голосовать в опросах
Вы не можете прикреплять файлы к сообщениям
Вы можете скачивать файлы