Loading...
Error

Скачать Восьмое чувство / Sense8 (сезон 01) (Дэн Гласс и др.) [2015, фантастика, драма, WEBRip] [MVO (OMSKBIRD records)]+[Eng] торрент без регистрации

 
Статистика раздачи
Размер:  9,14 GB   |    Скачан:  788 раз
Сидов:  1  [  0 KB/s  ]  
 
Автор Сообщение

МихаНЕзатор

[] 

Информация о фильме
Название: Восьмое чувство
Оригинальное название: Sense8
Год выхода: 2015
Жанр: Фантастика, драма
Режиссер: Дэн Гласс, Энди Вачовски, Лана Вачовски

В ролях: Джеми Клейтон, Макс Римельт, Анупам Кхер, Джеронимо Бест, Ари Брикман, Сара Сон, Фрима Аджьеман, Амл Амин, Навин Эндрюс, Пэ Ду На

О фильме: Группа людей из разных точек мира неожиданно оказываются ментально связанными, теперь им придется найти способ, чтобы выжить, потому что за ними начинают охотиться те, кто видит в них угрозу для этого мира…



Страна: США

Продолжительность: ~ 01:06:00 серия
Перевод: Любительский (многоголосый закадровый) | OMSKBIRD records

Файл
Кодек: Xvid
Качество: WEBRip
Видео: 720x400 (16:9), 23,976 fps, ~1600 kbps
Звук:
Аудио rus: MP3, 48 kHz, 2 ch, 192 kbps | OMSKBIRD records
Аудио eng: MP3, 48 kHz, 2 ch, 192 kbps | original

Релиз от: skyns61

АНОНСЫ ПОПУЛЯРНЫХ РАЗДАЧ


Торрент обновлён, добавлена 12-я серия!

01. Лимбический отклик
02. Я - это мы
03. Ставлю на тощую
04. Что происходит?
05. Искусство как религия
06. Демоны
07. Что бы сделала Нэнси Дрю?
08. Нас будут судить по храбрости наших сердец
09. Смерть попрощаться не дает
10. Что есть человек?
11. Крутани колесо и будущее изменится
12. Я не покину ее

Релиз-группа:
Перевод: Лилия Кушнаренко и Никита Коваль
Роли озвучивали: Павел Ярощик, Ольга Федорова
Сборка, работа со звуком: Skyns61

Общее
Полное имя : F:FilmsSense8.S01E01.XviD.OmskBirdSense8.S01E01.XviD.Rus.Eng.OmskBird.avi
Формат : AVI
Формат/Информация : Audio Video Interleave
Размер файла : 951 Мбайт
Продолжительность : 1 ч. 6 м.
Общий поток : 1997 Кбит/сек
Программа кодирования : VirtualDubMod 1.5.10.3 (build 2550/release)
Библиотека кодирования : VirtualDubMod build 2550/release

Видео
Идентификатор : 0
Формат : xvid
Идентификатор кодека : xvid
Продолжительность : 1 ч. 6 м.
Битрейт : 1599 Кбит/сек
Ширина : 720 пикселей
Высота : 400 пикселей
Соотношение сторон : 16:9
Частота кадров : 23,976 кадра/сек
Бит/(Пиксели*Кадры) : 0.232
Размер потока : 761 Мбайт (80%)

Аудио #1
Идентификатор : 1
Формат : MPEG Audio
Версия формата : Version 1
Профиль формата : Layer 3
Режим : Joint stereo
Расширение режима : MS Stereo
Идентификатор кодека : 55
Идентификатор кодека/Подсказка : MP3
Продолжительность : 1 ч. 6 м.
Вид битрейта : Постоянный
Битрейт : 192 Кбит/сек
Каналы : 2 канала
Частота : 48,0 КГц
Метод сжатия : С потерями
Размер потока : 91,4 Мбайт (10%)
Выравнивание : Соединение по промежуткам
Продолжительность промежутка : 42 мс. (1,00 видеокадр)
Время предзагрузки промежутка : 504 мс.

Аудио #2
Идентификатор : 2
Формат : MPEG Audio
Версия формата : Version 1
Профиль формата : Layer 3
Режим : Joint stereo
Идентификатор кодека : 55
Идентификатор кодека/Подсказка : MP3
Продолжительность : 1 ч. 6 м.
Вид битрейта : Постоянный
Битрейт : 192 Кбит/сек
Каналы : 2 канала
Частота : 48,0 КГц
Метод сжатия : С потерями
Размер потока : 91,4 Мбайт (10%)
Выравнивание : Разделение по промежуткам
Продолжительность промежутка : 42 мс. (1,00 видеокадр)
Время предзагрузки промежутка : 500 мс.
Библиотека кодирования : LAME3.97ЄЄЄЄЄЄЄЄЄЄЄЄ

Когда раздача ведётся путём добавления новых серий, при каждом добавлении создётся новый торрент. Чтобы начать докачку новой серии, пользователям необходимо сделать следующее:
(1) остановить скачивание,
(2) удалить старый торрент у себя из клиента (старые серии удалять не надо),
(3) скачать новый торрент и запустить его у себя в клиенте вместо старого, при этом указать клиенту путь в старую папку, куда и должно происходить скачивание новых серий.
Ваш клиент при этом должен произвести хеширование (проверку) старой папки (если не производит сам - помогите ему сделать это), и будет докачивать только те серии, которых у вас ещё нет. Старые серии при этом не удаляются, а продолжают раздаваться!
Eсли вы уже удалили старые серии, то предотвратить повторную закачку старых серий можно, отжав галочку в соответсвующих местах при запуске нового торрента. По возможности, желательно не удалять старые серии как можно дольше, чтобы релизёр не столько продолжал раздавать старые серии, а смог сконцентрироваться на новых.



Скачать Восьмое.чувство.Sense8.(сезон.01).(Дэн.Гласс.и.др.).[2015.фантастика.драма.WEBRip].[MVO.(OMSKBIRD.records)]+[Eng].torrent без регистрации
Золото ЗОЛОТАЯ РАЗДАЧА! СКАЧАННОЕ НЕ ЗАСЧИТЫВАЕТСЯ! Золото
Дата: Зарегистрирован   [ Тип: внутренний ] Как тут cкачать?
MAGNET ссылка
MAGNET ссылка


Скачать .torrent

25 KB

Статус: проверено DHT
Скачан: торрент - 788 раз, раздача полностью - 79 раз
Размер: 9,14 GB
Оценка:  4 (Голосов: 1)
Поблагодарили: 3
Поделиться ссылкой на эту раздачу с друзьями:
В контактеFacebookОдноклассникиTwitterLivejournalМой МирLiveinternet
 

 
Показать сообщения:    


Вы не можете начинать темы
Вы не можете отвечать на сообщения
Вы не можете редактировать свои сообщения
Вы не можете удалять свои сообщения
Вы не можете голосовать в опросах
Вы не можете прикреплять файлы к сообщениям
Вы можете скачивать файлы