Loading...
Error

Скачать Умница Уилл Хантинг / Good Will Hunting (Гас Ван Сэнт) [1997, драма, BDRip] [DVO] торрент без регистрации

 
Статистика раздачи
Размер:  745 MB   |    Скачан:  102 раза
Сидов:  10  [  0 KB/s  ]  
 
Автор Сообщение

Marsianka

[] 

Страна: США
Производство: Be Gentlemen Limited Partnership, Lawrence Bender Productions, Miramax Films
Жанр: драма
Год выпуска: 1997
Продолжительность: 02:06:33

Перевод: Профессиональный (Двухголосый, закадровый) (West)
Оригинальная аудиодорожка: нет
Cубтитры: нет

Режиссер: Гас Ван Сэнт / Gus Van Sant

В ролях:
Робин Уильямс, Мэтт Дэймон, Бен Аффлек, Стеллан Скарсгард, Минни Драйвер, Кейси Аффлек, Коул Хаузер, Джон Майтон, Рэйчел Маджоровски, Коллин МакКоли...

Описание:
Уилл Хантинг — 20-летний вундеркинд из Бостона, который то и дело ввязывается в неприятные истории. И когда полиция арестовывает его за очередную драку, профессор математики берет его под свою опеку, но при одном условии: Уилл должен пройти курс психотерапии. Сеансы «перевоспитания», начавшиеся с недоверия, постепенно перерастают в дружбу между Уиллом и его наставником…

Исходник: BDRemux 1080p
Тип релиза: BDRip
Контейнер: AVI

Видео: 592x320 (1,850:1), 23,976 fps, XviD ~ 689 kbps avg, 0.152 bit/pixel
Аудио: 48 kHz, MP3 2.0, 128 kbps

Раздача от:

Общее
Полное имя : Umnica.Uill.Hanting.1997.BDRip-745_[New-team]_by_AVP_Studio.avi
Формат : AVI
Формат/Информация : Audio Video Interleave
Размер файла : 745 Мбайт
Продолжительность : 2 ч. 6 м.
Общий поток : 826 Кбит/сек
Программа кодирования : VirtualDubModRus 1.5.10.2 (build 2542/release)
Библиотека кодирования : VirtualDubMod build 2542/release

Видео
Идентификатор : 0
Формат : MPEG-4 Visual
Профиль формата : Advanced Simple@L5
Параметр BVOP формата : 1
Параметр QPel формата : Нет
Параметр GMC формата : Без точки перехода
Параметр матрицы формата : Выборочная
Идентификатор кодека : XVID
Идентификатор кодека/Подсказка : XviD
Продолжительность : 2 ч. 6 м.
Битрейт : 689 Кбит/сек
Ширина : 592 пикселя
Высота : 320 пикселей
Соотношение сторон : 1,850
Частота кадров : 23,976 кадра/сек
Цветовое пространство : YUV
Субдискретизация насыщенности : 4:2:0
Битовая глубина : 8 бит
Тип развёртки : Прогрессивная
Метод сжатия : С потерями
Бит/(Пиксели*Кадры) : 0.152
Размер потока : 621 Мбайт (83%)
Библиотека кодирования : XviD 73

Аудио
Идентификатор : 1
Формат : MPEG Audio
Версия формата : Version 1
Профиль формата : Layer 3
Идентификатор кодека : 55
Идентификатор кодека/Подсказка : MP3
Продолжительность : 2 ч. 6 м.
Вид битрейта : Постоянный
Битрейт : 128 Кбит/сек
Каналы : 2 канала
Частота : 48,0 КГц
Метод сжатия : С потерями
Размер потока : 115 Мбайт (15%)
Выравнивание : Соединение по промежуткам
Продолжительность промежутка : 42 мс. (1,00 видеокадр)
Время предзагрузки промежутка : 504 мс.
Библиотека кодирования : LAME3.99r
Настройки программы : -m s -V 4 -q 2 -lowpass 17 -b 128



Скачать Умница.Уилл.Хантинг.Good.Will.Hunting.(Гас.Ван.Сэнт).[1997.драма.BDRip].[DVO].torrent без регистрации
Золото ЗОЛОТАЯ РАЗДАЧА! СКАЧАННОЕ НЕ ЗАСЧИТЫВАЕТСЯ! Золото
Дата: Зарегистрирован   [ Тип: внешний ] Как тут cкачать?
MAGNET ссылка
MAGNET ссылка


Скачать .torrent

15 KB

Статус: проверено DHT
Скачан: торрент - 102 раз, раздача полностью - 12 раз
Размер: 745 MB
Оценка:  - (Голосов: 0)
Поблагодарили: 0
Поделиться ссылкой на эту раздачу с друзьями:
В контактеFacebookОдноклассникиTwitterLivejournalМой МирLiveinternet
 

 
Показать сообщения:    


Вы не можете начинать темы
Вы не можете отвечать на сообщения
Вы не можете редактировать свои сообщения
Вы не можете удалять свои сообщения
Вы не можете голосовать в опросах
Вы не можете прикреплять файлы к сообщениям
Вы можете скачивать файлы