Loading...
Error

Скачать Волки / Wolfen (Майкл Уодли) [1981, ужасы, триллер, BDRip AVC] [DVO]+[Оригинал]+[Sub] торрент без регистрации

 
Статистика раздачи
Размер:  2,52 GB   |    Скачан:  93 раза
Сидов:  1  [  0 KB/s  ]  
 
Автор Сообщение

Marsianka

[] 

Название: Волки
Оригинальное название: Wolfen
Год выпуска: 1981
Страна: США
Жанр: ужасы, триллер
Продолжительность: 01:54:06
Перевод: профессиональный двухголосый

Режиссёр: Майкл Уодли

В ролях: Альберт Финни, Дайан Венора, Эдвард Джеймс Олмос, Грегори Хайнс, Том Нунен, Дик О’Нил, Дел Берти, Питер Майкл Гец, Сэм Грэй, Ральф Белл, Макс М. Браун, Энн Мари Потамо, Сара Фелдер, Реджинальд ВелДжонсон, Джеймс Толкан, Джон МакКарри, Крис Мэнор, Дональд Симингтон, Джеффри Уэр, Джеффри Томпсон, Виктор Арнольд, Фрэнк Адонис, Ричард Минченберг, Рэймонд Серра, Томас Райан

Описание: Как вы думаете, что общего может быть между богатым торговцем недвижимостью, его женой-наркоманкой и грязным пьяницей из трущоб? Лишь одно жуткое обстоятельство: все они жертвы неслыханных по жестокости убийств, потрясших Нью-Йорк! Ведущий расследование ветеран убойного отдела скоро с ужасом начинает понимать, что зловещие убийства совершаются древними сверхъестественными существами...



Качество: BDRip AVC Сравнение с исходником
Формат: MKV
Видео: MPEG-4 AVC, 2455 Кбит/с, 1024х426, 23,976 кадра/с
Аудио 1: русский, AC3, 192 kbps, 2 ch, 48 kHz [профессиональный двухголосый, Премьер]
Аудио 2: английский, AC3, 448 kbps, 6 ch, 48 kHz [оригинал]
Субтитры: английские
Сатурн, 1982 год
Номинации (4):
Лучший фильм ужасов
Лучший режиссер (Майкл Уодли)
Лучший актер (Альберт Финни)
Лучший сценарий
Общее
Уникальный идентификатор : 186450742699287444230026002474477624604 (0x8C451B5AA3638A718CECFC91D6DD1D1C)
Полное имя : D:VideoВолки.1981.BDRip.AVC.mkv
Формат : Matroska
Версия формата : Version 4 / Version 2
Размер файла : 2,52 Гбайт
Продолжительность : 1 ч. 54 м.
Общий поток : 3158 Кбит/сек
Название фильма : BDRip -- STarankov
Дата кодирования : UTC 2015-06-11 09:40:43
Программа кодирования : mkvmerge v7.9.0 ('Birds') 64bit
Библиотека кодирования : libebml v1.3.1 + libmatroska v1.4.2
DURATION : 01:47:42.789000000
NUMBER_OF_FRAMES : 913
NUMBER_OF_BYTES : 32203
_STATISTICS_WRITING_APP : mkvmerge v7.9.0 ('Birds') 64bit
_STATISTICS_WRITING_DATE_UTC : 2015-06-11 09:40:43
_STATISTICS_TAGS : BPS DURATION NUMBER_OF_FRAMES NUMBER_OF_BYTES

Видео
Идентификатор : 1
Формат : AVC
Формат/Информация : Advanced Video Codec
Профиль формата : High@L4.1
Параметр CABAC формата : Да
Параметр ReFrames формата : 9 кадров
Идентификатор кодека : V_MPEG4/ISO/AVC
Продолжительность : 1 ч. 54 м.
Битрейт : 2455 Кбит/сек
Ширина : 1024 пикселя
Высота : 426 пикселей
Соотношение сторон : 2,40:1
Режим частоты кадров : Постоянный
Частота кадров : 23,976 кадра/сек
Цветовое пространство : YUV
Субдискретизация насыщенности : 4:2:0
Битовая глубина : 8 бит
Тип развёртки : Прогрессивная
Бит/(Пиксели*Кадры) : 0.235
Размер потока : 1,96 Гбайт (78%)
Библиотека кодирования : x264 core 146 r2538 121396c
Настройки программы : cabac=1 / ref=9 / deblock=1:-1:-1 / analyse=0x3:0x113 / me=umh / subme=10 / psy=1 / psy_rd=1.00:0.15 / mixed_ref=1 / me_range=32 / chroma_me=1 / trellis=2 / 8x8dct=1 / cqm=0 / deadzone=21,11 / fast_pskip=1 / chroma_qp_offset=-3 / threads=6 / lookahead_threads=1 / sliced_threads=0 / nr=0 / decimate=1 / interlaced=0 / bluray_compat=0 / constrained_intra=0 / bframes=12 / b_pyramid=2 / b_adapt=2 / b_bias=0 / direct=1 / weightb=1 / open_gop=0 / weightp=2 / keyint=230 / keyint_min=23 / scenecut=40 / intra_refresh=0 / rc_lookahead=40 / rc=crf / mbtree=0 / crf=19.5 / qcomp=0.60 / qpmin=0 / qpmax=69 / qpstep=4 / vbv_maxrate=40000 / vbv_bufsize=50000 / crf_max=0.0 / nal_hrd=none / filler=0 / ip_ratio=1.40 / pb_ratio=1.30 / aq=1:1.00
Язык : English
Default : Да
Forced : Нет
DURATION : 01:54:05.923000000
NUMBER_OF_FRAMES : 164138
NUMBER_OF_BYTES : 2152911608
_STATISTICS_WRITING_APP : mkvmerge v7.9.0 ('Birds') 64bit
_STATISTICS_WRITING_DATE_UTC : 2015-06-11 09:40:43
_STATISTICS_TAGS : BPS DURATION NUMBER_OF_FRAMES NUMBER_OF_BYTES

Аудио #1
Идентификатор : 2
Формат : AC-3
Формат/Информация : Audio Coding 3
Расширение режима : CM (complete main)
Параметр Endianness формата : Big
Идентификатор кодека : A_AC3
Продолжительность : 1 ч. 54 м.
Вид битрейта : Постоянный
Битрейт : 192 Кбит/сек
Каналы : 2 канала
Расположение каналов : Front: L R
Частота : 48,0 КГц
Битовая глубина : 16 бит
Метод сжатия : С потерями
Размер потока : 157 Мбайт (6%)
Заголовок : DVO (Премьер)
Язык : Russian
Default : Да
Forced : Нет

Аудио #2
Идентификатор : 3
Формат : AC-3
Формат/Информация : Audio Coding 3
Расширение режима : CM (complete main)
Параметр Endianness формата : Big
Идентификатор кодека : A_AC3
Продолжительность : 1 ч. 54 м.
Вид битрейта : Постоянный
Битрейт : 448 Кбит/сек
Каналы : 6 каналов
Расположение каналов : Front: L C R, Side: L R, LFE
Частота : 48,0 КГц
Битовая глубина : 16 бит
Метод сжатия : С потерями
Размер потока : 366 Мбайт (14%)
Заголовок : Original
Язык : English
Default : Нет
Forced : Нет

Текст
Идентификатор : 4
Формат : UTF-8
Идентификатор кодека : S_TEXT/UTF8
Идентификатор кодека/Информация : UTF-8 Plain Text
Заголовок : английские
Язык : English
Default : Нет
Forced : Нет



Скачать Волки.Wolfen.(Майкл.Уодли).[1981.ужасы.триллер.BDRip.AVC].[DVO]+[Оригинал]+[Sub].torrent без регистрации
Золото ЗОЛОТАЯ РАЗДАЧА! СКАЧАННОЕ НЕ ЗАСЧИТЫВАЕТСЯ! Золото
Дата: Зарегистрирован   [ Тип: внутренний ] Как тут cкачать?
MAGNET ссылка
MAGNET ссылка


Скачать .torrent

13 KB

Статус: проверено DHT
Скачан: торрент - 93 раз, раздача полностью - 7 раз
Размер: 2,52 GB
Оценка:  - (Голосов: 0)
Поблагодарили: 2
Поделиться ссылкой на эту раздачу с друзьями:
В контактеFacebookОдноклассникиTwitterLivejournalМой МирLiveinternet
 

 
Показать сообщения:    


Вы не можете начинать темы
Вы не можете отвечать на сообщения
Вы не можете редактировать свои сообщения
Вы не можете удалять свои сообщения
Вы не можете голосовать в опросах
Вы не можете прикреплять файлы к сообщениям
Вы можете скачивать файлы