Loading...
Error

Скачать Дон Кихот / Последний рыцарь / Don Quixote (Питер Йетс / Peter Yates) [2000, комедия, приключения, экранизация, DVDRip] [DVO] (Екатеринбург Арт) торрент без регистрации

 
Статистика раздачи
Размер:  2,1 GB   |    Скачан:  103 раза
Сидов:  1  [  0 KB/s  ]  
 
Автор Сообщение

leon030982

[] 

Дон Кихот / Последний рыцарь / Don Quixote

Год выпуска: 2000
Страна: США, Великобритания
Жанр: комедия, приключения, экранизация
Продолжительность: 02:19:18
Перевод: Профессиональный (двухголосый, закадровый) [Екатеринбург Арт]
Cубтитры: нет

Режиссер: Питер Йетс / Peter Yates

В ролях: Джон Литгоу, Боб Хоскинс, Ламбер Вильсон, Изабелла Росселлини, Амелия Уорнер, Ванесса Л. Уильямс, Тони Хэйгарт, Питер Айр, Лило Баур, Джеймс Пьюрфой, Тревор Пикок, Линда Бэссетт, Бэрри Стэнтон, Алан Рэглан, Майкл Фист, Грэм Кроуден, Ампаро Валле, Алисия Боррачеро, Рут Шин, Шон Гилдер, Розмари Смит, Френсис Маджи, Маноло Каро, Джессика Ойелово, Наташа Эстелль Уильямс, Майк Кемп, Рори Эдвардс, Люсина Гил, Майкл Калкин, Тимоти Бэйтсон, Балбино Акоста, Антонио Мартинес, Бен Томас, Тете Делгадо, Эйлин Белл


Экранизация классического романа Мигеля Сервантеса-и-Сааведра. Его всемирной славе могут позавидовать многие полководцы и герои. Он - последний рыцарь эпохи галантных кавалеров и невероятных подвигов во имя несравненных прекрасных дам. Он - бессмертный воитель, который по-прежнему на коне и готов к вечной битве с силами зла. И он - отважный человек, который навсегда остался победителем в главной битве своей жизни...



Качество: DVDRip
Формат: AVI
Видео кодек: XviD
Аудио кодек: AC3
Видео: XviD, 704x528 (4:3), 25.000 fps, 1696 kbps avg
Аудио: Russian 48 kHz, AC3 Dolby Digital, 3/2 (L,C,R,l,r) + LFE ch, ~448.00 kbps avg
Автор рипа -- smit009

Цитата:

Работа со звуком alex7691.
General
Complete name : E:\Don Quixotte_2000\Don Quixotte_2000.DVDRip.DVO.EA.avi
Format : AVI
Format/Info : Audio Video Interleave
Format profile : OpenDML
File size : 2.10 GiB
Duration : 2h 19mn
Overall bit rate : 2 157 Kbps
Writing application : VirtualDubMod 1.5.10.2 (build 2540/release)
Writing library : VirtualDubMod build 2540/release
Video
ID : 0
Format : MPEG-4 Visual
Format profile : Advanced Simple@L5
Format settings, BVOP : 1
Format settings, QPel : No
Format settings, GMC : No warppoints
Format settings, Matrix : Default (MPEG)
Codec ID : XVID
Codec ID/Hint : XviD
Duration : 2h 19mn
Bit rate : 1 697 Kbps
Width : 704 pixels
Height : 528 pixels
Display aspect ratio : 4:3
Frame rate : 25.000 fps
Color space : YUV
Chroma subsampling : 4:2:0
Bit depth : 8 bits
Scan type : Progressive
Compression mode : Lossy
Bits/(Pixel*Frame) : 0.183
Stream size : 1.65 GiB (79%)
Writing library : XviD 73
Audio
ID : 1
Format : AC-3
Format/Info : Audio Coding 3
Mode extension : CM (complete main)
Format settings, Endianness : Big
Codec ID : 2000
Duration : 2h 19mn
Bit rate mode : Constant
Bit rate : 448 Kbps
Channel(s) : 6 channels
Channel positions : Front: L C R, Side: L R, LFE
Sampling rate : 48.0 KHz
Bit depth : 16 bits
Compression mode : Lossy
Delay relative to video : 1s 909ms
Stream size : 446 MiB (21%)
Alignment : Split accross interleaves
Interleave, duration : 40 ms (1.00 video frame)
Interleave, preload duration : 500 ms



Скачать Дон.Кихот.Последний.рыцарь.Don.Quixote.(Питер.Йетс.Peter.Yates).[2000.комедия.приключения.экранизация.DVDRip].[DVO].(Екатеринбург.Арт).torrent без регистрации
Золото ЗОЛОТАЯ РАЗДАЧА! СКАЧАННОЕ НЕ ЗАСЧИТЫВАЕТСЯ! Золото
Дата: Зарегистрирован   [ Тип: внутренний ] Как тут cкачать?
MAGNET ссылка
MAGNET ссылка


Скачать .torrent

11 KB

Статус: проверено DHT
Скачан: торрент - 103 раз, раздача полностью - 5 раз
Размер: 2,1 GB
Оценка:  5 (Голосов: 2)
Поблагодарили: 2
Поделиться ссылкой на эту раздачу с друзьями:
В контактеFacebookОдноклассникиTwitterLivejournalМой МирLiveinternet
 

 
Показать сообщения:    


Вы не можете начинать темы
Вы не можете отвечать на сообщения
Вы не можете редактировать свои сообщения
Вы не можете удалять свои сообщения
Вы не можете голосовать в опросах
Вы не можете прикреплять файлы к сообщениям
Вы можете скачивать файлы