Loading...
Error

Скачать Горбун / Le Bossu (Филипп де Брока) [1997, драма, приключения, BDRip AVC] [MVO]+[AVO]+[Оригинал] торрент без регистрации

 
Статистика раздачи
Размер:  3,17 GB   |    Скачан:  104 раза
Сидов:  1  [  0 KB/s  ]  
 
Автор Сообщение

Marsianka

[] 

Название: Горбун
Оригинальное название: Le Bossu
Год выпуска: 1997
Страна: Германия, Франция, Италия
Жанр: драма, приключения
Продолжительность: 02:08:17
Перевод: профессиональный многоголосый, авторский

Режиссёр: Филипп де Брока

В ролях: Фабрис Лукини, Даниель Отой, Венсан Перес, Мари Жиллен, Янн Коллетт, Жан-Франсуа Стевенен, Дидье Пэйн, Клер Небу, Филипп Нуаре, Чарли Нельсон, Жак Сери, Ренато Скарпа, Джеймс Тьеррэ, Саша Бурдо, Урбен Канселье, Этьенн Драбе, Анна Гейлор, Франсуа Леванталь, Саймон Дониоль-Вайкрозе, Тьерри Ненец, Ли Делонг, Марго Маргерит, Кристиан Мюло, Жак Вилла

Описание: Шестнадцать лет жизни потратил шевалье Лагардер, чтобы отомстить за смерть своего друга герцога Неверского. Шестнадцать лет, чтобы подобраться к убийце, ставшему финансовым королём Парижа, на чьей руке он своей острой шпагой начертал вечное клеймо позора. Шестнадцать лет, чтобы добиться торжества справедливости, сохранить честь и найти любовь. История отчаянного дуэлянта и пылкого любовника, которую донесла до нас людская молва и придворные сплетни.



Качество: BDRip AVC Сравнение с исходником
Формат: MKV
Видео: MPEG-4 AVC, 2252 Кбит/с, 1024x436, 24 кадра/с
Аудио 1: русский, AC3, 384 kbps, 2 ch, 48 kHz [профессиональный многоголосый, ТВЦ]
Аудио 2: русский, AC3, 384 kbps, 2 ch, 48 kHz [авторский, Юрий Сербин]
Аудио 3: французский, AC3, 448 kbps, 6 ch, 48 kHz [оригинал]
Британская академия, 1999 год
Номинации (1):
Лучший фильм на иностранном языке

Сезар, 1998 год
Победитель (1):
Лучшие костюмы

Номинации (8):
Лучший фильм
Лучший актер (Даниель Отой)
Лучшая актриса (Мари Жиллен)
Лучший актер второго плана (Венсан Перес)
Лучшая работа оператора
Лучший монтаж
Лучший саундтрек
Лучшие декорации
Общее
Уникальный идентификатор : 246037448410319164625103343937899487307 (0xB91916C456F7C071BE1C9F8B0CD4604B)
Полное имя : D:VideoГорбун.1997.BDRip.AVC.mkv
Формат : Matroska
Версия формата : Version 4 / Version 2
Размер файла : 3,17 Гбайт
Продолжительность : 2 ч. 8 м.
Общий поток : 3538 Кбит/сек
Название фильма : BDRip -- STarankov
Дата кодирования : UTC 2015-06-14 11:31:23
Программа кодирования : mkvmerge v7.9.0 ('Birds') 64bit
Библиотека кодирования : libebml v1.3.1 + libmatroska v1.4.2
_STATISTICS_WRITING_APP : mkvmerge v7.9.0 ('Birds') 64bit
_STATISTICS_WRITING_DATE_UTC : 2015-06-14 11:31:23
_STATISTICS_TAGS : BPS DURATION NUMBER_OF_FRAMES NUMBER_OF_BYTES
DURATION : 02:08:16.704000000
NUMBER_OF_FRAMES : 240522
NUMBER_OF_BYTES : 431015424

Видео
Идентификатор : 1
Формат : AVC
Формат/Информация : Advanced Video Codec
Профиль формата : High@L4.1
Параметр CABAC формата : Да
Параметр ReFrames формата : 9 кадров
Идентификатор кодека : V_MPEG4/ISO/AVC
Продолжительность : 2 ч. 8 м.
Битрейт : 2252 Кбит/сек
Ширина : 1024 пикселя
Высота : 436 пикселей
Соотношение сторон : 2,35:1
Режим частоты кадров : Постоянный
Частота кадров : 24,000 кадра/сек
Цветовое пространство : YUV
Субдискретизация насыщенности : 4:2:0
Битовая глубина : 8 бит
Тип развёртки : Прогрессивная
Бит/(Пиксели*Кадры) : 0.210
Размер потока : 2,02 Гбайт (64%)
Библиотека кодирования : x264 core 146 r2538 121396c
Настройки программы : cabac=1 / ref=9 / deblock=1:-1:-1 / analyse=0x3:0x113 / me=umh / subme=10 / psy=1 / psy_rd=1.00:0.15 / mixed_ref=1 / me_range=32 / chroma_me=1 / trellis=2 / 8x8dct=1 / cqm=0 / deadzone=21,11 / fast_pskip=1 / chroma_qp_offset=-3 / threads=6 / lookahead_threads=1 / sliced_threads=0 / nr=0 / decimate=1 / interlaced=0 / bluray_compat=0 / constrained_intra=0 / bframes=11 / b_pyramid=2 / b_adapt=2 / b_bias=0 / direct=1 / weightb=1 / open_gop=0 / weightp=2 / keyint=230 / keyint_min=23 / scenecut=40 / intra_refresh=0 / rc_lookahead=40 / rc=crf / mbtree=0 / crf=20.0 / qcomp=0.60 / qpmin=0 / qpmax=69 / qpstep=4 / vbv_maxrate=40000 / vbv_bufsize=50000 / crf_max=0.0 / nal_hrd=none / filler=0 / ip_ratio=1.40 / pb_ratio=1.30 / aq=1:1.00
Язык : French
Default : Да
Forced : Нет
DURATION : 02:08:17.709000000
NUMBER_OF_FRAMES : 184745
NUMBER_OF_BYTES : 2232235823
_STATISTICS_WRITING_APP : mkvmerge v7.9.0 ('Birds') 64bit
_STATISTICS_WRITING_DATE_UTC : 2015-06-14 11:31:23
_STATISTICS_TAGS : BPS DURATION NUMBER_OF_FRAMES NUMBER_OF_BYTES

Аудио #1
Идентификатор : 2
Формат : AC-3
Формат/Информация : Audio Coding 3
Расширение режима : CM (complete main)
Параметр Endianness формата : Big
Идентификатор кодека : A_AC3
Продолжительность : 2 ч. 8 м.
Вид битрейта : Постоянный
Битрейт : 384 Кбит/сек
Каналы : 2 канала
Расположение каналов : Front: L R
Частота : 48,0 КГц
Битовая глубина : 16 бит
Метод сжатия : С потерями
Размер потока : 352 Мбайт (11%)
Заголовок : MVO (ТВЦ)
Язык : Russian
Default : Да
Forced : Нет

Аудио #2
Идентификатор : 3
Формат : AC-3
Формат/Информация : Audio Coding 3
Расширение режима : CM (complete main)
Параметр Endianness формата : Big
Идентификатор кодека : A_AC3
Продолжительность : 2 ч. 8 м.
Вид битрейта : Постоянный
Битрейт : 384 Кбит/сек
Каналы : 2 канала
Расположение каналов : Front: L R
Частота : 48,0 КГц
Битовая глубина : 16 бит
Метод сжатия : С потерями
Размер потока : 352 Мбайт (11%)
Заголовок : AVO (Юрий Сербин)
Язык : Russian
Default : Нет
Forced : Нет

Аудио #3
Идентификатор : 4
Формат : AC-3
Формат/Информация : Audio Coding 3
Расширение режима : CM (complete main)
Параметр Endianness формата : Big
Идентификатор кодека : A_AC3
Продолжительность : 2 ч. 8 м.
Вид битрейта : Постоянный
Битрейт : 448 Кбит/сек
Каналы : 6 каналов
Расположение каналов : Front: L C R, Side: L R, LFE
Частота : 48,0 КГц
Битовая глубина : 16 бит
Метод сжатия : С потерями
Размер потока : 411 Мбайт (13%)
Заголовок : Original
Язык : French
Default : Нет
Forced : Нет



Скачать Горбун.Le.Bossu.(Филипп.де.Брока).[1997.драма.приключения.BDRip.AVC].[MVO]+[AVO]+[Оригинал].torrent без регистрации
Золото ЗОЛОТАЯ РАЗДАЧА! СКАЧАННОЕ НЕ ЗАСЧИТЫВАЕТСЯ! Золото
Дата: Зарегистрирован   [ Тип: внутренний ] Как тут cкачать?
MAGNET ссылка
MAGNET ссылка


Скачать .torrent

16 KB

Статус: проверено DHT
Скачан: торрент - 104 раз, раздача полностью - 106 раз
Размер: 3,17 GB
Оценка:  - (Голосов: 0)
Поблагодарили: 3
Поделиться ссылкой на эту раздачу с друзьями:
В контактеFacebookОдноклассникиTwitterLivejournalМой МирLiveinternet
 

 
Показать сообщения:    


Вы не можете начинать темы
Вы не можете отвечать на сообщения
Вы не можете редактировать свои сообщения
Вы не можете удалять свои сообщения
Вы не можете голосовать в опросах
Вы не можете прикреплять файлы к сообщениям
Вы можете скачивать файлы