Loading...
Error

Скачать Библейские сказания / Пророк Моисей: Вождь-освободитель / Moses (Роджер Янг) [1995, драма, приключения, биография, история, религия, DVDRip-AVC] [MVO]+[Sub] торрент без регистрации

 
Статистика раздачи
Размер:  3,06 GB   |    Скачан:  144 раза
Сидов:  1  [  0 KB/s  ]  
 
Автор Сообщение

Marsianka

[] 

Информация о фильме
Название: Библейские сказания / Пророк Моисей: Вождь-освободитель
Оригинальное название: Moses
Год выхода: 1995
Жанр: драма, приключения, биография, история, религия
Режиссер: Роджер Янг
В ролях: Бен Кингсли, Фрэнк Ланджелла, Кристофер Ли, Анна Гальена, Энрико Ло Версо, Дэвид Суше…

О фильме: «Фильм 4 из 13 “Библейской коллекции” »
Когда фараон Египта Рамзес приказал убить всех еврейских детей, уцелел лишь младенец Моисей. Мать положила его в корзину, которую пустила плыть по Нилу. Дочь фараона нашла младенца, усыновила его, и он воспитывался вместе с наследником престола Мернефтой. Господь призвал Моисея вывести свой народ из египетского рабства в Землю обетованную.

Но Мернефта, занявший трон после смерти отца, отказался отпустить евреев. Лишь страшные знамения вынудили его не препятствовать Моисею. Пустившись в погоню за беглецами, фараон вместе со всей своей армией погиб в пучине Красного моря. Моисей же 40 лет водил свой народ по пустыне, чтобы избавить души соплеменников от рабства.



Страна: США, Чехия, Великобритания, Франция, Италия, Германия, Испания
Студия: Beta Film, Lube Productions, Taurus Film…
Продолжительность: 02:56:42
Перевод: Профессиональный (многоголосый, закадровый)

Файл
Кодек: h.264 (MKV)
Качество: DVDRip-AVC
Видео: AVC, 1024 x 768, ~2045 kbps
Звук: Русский: Dolby Digital 2.0; 192Kbps / Английский: Dolby Digital 2.0; 192Kbps
Субтитры: Русский (hardsub) Продолжение следует…

Семпл
Общее
Уникальный идентификатор : 225616831438823966369913946740122958215 (0xA9BC389E1C5F99CBB5766FFD628BB987)
Полное имя : G: Библейские сказания Библейская коллекция The Bible (1994-2002-2009-2010) Полное коллекционное собраниеБиблейские сказания2. Пророк Моисей. Вождь-освободительНовая папка�4. Moses.1995.DVDRip-AVC.mkv
Формат : Matroska
Версия формата : Version 4 / Version 2
Размер файла : 3,06 Гбайт
Продолжительность : 2 ч. 56 м.
Общий поток : 2478 Кбит/сек
Дата кодирования : UTC 2014-07-18 08:17:58
Программа кодирования : mkvmerge v6.9.1 ('Blue Panther') 64bit built on Apr 18 2014 18:23:38
Библиотека кодирования : libebml v1.3.0 + libmatroska v1.4.1

Видео
Идентификатор : 1
Формат : AVC
Формат/Информация : Advanced Video Codec
Профиль формата : Main@L4.1
Параметр CABAC формата : Да
Параметр ReFrames формата : 1 кадр
Идентификатор кодека : V_MPEG4/ISO/AVC
Продолжительность : 2 ч. 56 м.
Битрейт : 2045 Кбит/сек
Ширина : 1024 пикселя
Высота : 768 пикселей
Соотношение сторон : 4:3
Режим частоты кадров : Постоянный
Частота кадров : 25,000 кадров/сек
Цветовое пространство : YUV
Субдискретизация насыщенности : 4:2:0
Битовая глубина : 8 бит
Тип развёртки : Прогрессивная
Бит/(Пиксели*Кадры) : 0.104
Размер потока : 2,52 Гбайт (83%)
Default : Да
Forced : Нет

Аудио #1
Идентификатор : 2
Формат : AC-3
Формат/Информация : Audio Coding 3
Расширение режима : CM (complete main)
Параметр Endianness формата : Big
Идентификатор кодека : A_AC3
Продолжительность : 2 ч. 56 м.
Вид битрейта : Постоянный
Битрейт : 192 Кбит/сек
Каналы : 2 канала
Расположение каналов : Front: L R
Частота : 48,0 КГц
Битовая глубина : 16 бит
Метод сжатия : С потерями
Размер потока : 243 Мбайт (8%)
Default : Да
Forced : Нет

Аудио #2
Идентификатор : 3
Формат : AC-3
Формат/Информация : Audio Coding 3
Расширение режима : CM (complete main)
Параметр Endianness формата : Big
Идентификатор кодека : A_AC3
Продолжительность : 2 ч. 56 м.
Вид битрейта : Постоянный
Битрейт : 192 Кбит/сек
Каналы : 2 канала
Расположение каналов : Front: L R
Частота : 48,0 КГц
Битовая глубина : 16 бит
Метод сжатия : С потерями
Размер потока : 243 Мбайт (8%)
Default : Нет
Forced : Нет



Скачать Библейские.сказания.Пророк.Моисей.Вождь-освободитель.Moses.(Роджер.Янг).[1995.драма.приключения.биография.история.религия.DVDRip-AVC].[MVO]+[Sub].torrent без регистрации
Золото ЗОЛОТАЯ РАЗДАЧА! СКАЧАННОЕ НЕ ЗАСЧИТЫВАЕТСЯ! Золото
Дата: Зарегистрирован   [ Тип: внутренний ] Как тут cкачать?
MAGNET ссылка
MAGNET ссылка


Скачать .torrent

16 KB

Статус: проверено DHT
Скачан: торрент - 144 раз, раздача полностью - 72 раз
Размер: 3,06 GB
Оценка:  - (Голосов: 0)
Поблагодарили: 0
Поделиться ссылкой на эту раздачу с друзьями:
В контактеFacebookОдноклассникиTwitterLivejournalМой МирLiveinternet
 

 
Показать сообщения:    


Вы не можете начинать темы
Вы не можете отвечать на сообщения
Вы не можете редактировать свои сообщения
Вы не можете удалять свои сообщения
Вы не можете голосовать в опросах
Вы не можете прикреплять файлы к сообщениям
Вы можете скачивать файлы