Loading...
Error

Скачать Исполнитель желаний 2: Зло бессмертно / Wishmaster 2: Evil Never Dies (Джек Шолдер) [1999, ужасы, фэнтези, WEB-DLRip-AVC] [MVO]+[AVO]+[Оригинал] торрент без регистрации

 
Статистика раздачи
Размер:  2,19 GB   |    Скачан:  118 раз
Сидов:  1  [  0 KB/s  ]  
 
Автор Сообщение

Marsianka

[] 

Информация о фильме
Название: Исполнитель желаний 2: Зло бессмертно
Оригинальное название: Wishmaster 2: Evil Never Dies
Год выхода: 1999
Жанр: ужасы, фэнтези
Режиссер: Джек Шолдер
В ролях: Эндрю Дивофф, Пол Йоханссон, Холли Филдс, Букем Вудбайн, Карлос Леон, Роберт ЛаСардо, Олег Видов, Том ’Тайни’ Листер мл., Крис Вебер, Аль Фостер.

О фильме:
Во время неудачного ограбления, молодая воровка Моргана выпускает древнего злого Джина. Он садится в тюрьму вместо нее, чтобы выполнять безумные желания заключенных в обмен на их души. А сама Моргана должна загадать лишь три желания, чтобы Джин смог захватить Землю и уничтожить человечество…


Страна: США
Продолжительность: 01:36:03
Перевод: Профессиональный (многоголосый закадровый) DVD Групп, Авторский (одноголосый закадровый) Ю. Сербин.

Файл
Кодек: h.264
Качество: WEBDLRip-AVC
Видео: MPEG-4, 1024x538, 23.976 fps ~2170 kbps

1)AC3 6 ch, 48 kHz ~448 kbps - MVO [DVD Групп]
2)AC3 2 ch, 48 kHz ~192 kbps - AVO [Ю. Сербин]
3)AC3 6 ch, 48 kHz ~448 kbps - Original
General
Unique ID : 201302469769933541086047765267013651950 (0x977172086A3AF6678E0E8A477DAB4DEE)
Format : Matroska
Format version : Version 4 / Version 2
File size : 2.19 GiB
Duration : 1h 36mn
Overall bit rate : 3 259 Kbps
Encoded date : UTC 2014-09-29 03:29:24
Writing application : mkvmerge v7.2.0 ('On Every Street') 64bit built on Sep 13 2014 15:52:10
Writing library : libebml v1.3.0 + libmatroska v1.4.1
TITLE : Wishmaster 2. Evil Never Dies
DURATION : 01:36:01.056000000
NUMBER_OF_FRAMES : 180033
NUMBER_OF_BYTES : 322619136
_STATISTICS_WRITING_APP : mkvmerge v7.2.0 ('On Every Street') 64bit built on Sep 13 2014 15:52:10
_STATISTICS_WRITING_DATE_UTC : 2014-09-29 03:29:24
_STATISTICS_TAGS : BPS DURATION NUMBER_OF_FRAMES NUMBER_OF_BYTES

Video
ID : 1
Format : AVC
Format/Info : Advanced Video Codec
Format profile : High@L4.1
Format settings, CABAC : Yes
Format settings, ReFrames : 7 frames
Codec ID : V_MPEG4/ISO/AVC
Duration : 1h 36mn
Bit rate : 2 170 Kbps
Width : 1 024 pixels
Height : 538 pixels
Display aspect ratio : 1.903
Frame rate mode : Constant
Frame rate : 23.976 fps
Color space : YUV
Chroma subsampling : 4:2:0
Bit depth : 8 bits
Scan type : Progressive
Bits/(Pixel*Frame) : 0.164
Stream size : 1.41 GiB (65%)
Title : MPEG-4, 1024x538, 23.976 fps ~2170 kbps
Writing library : x264 core 130 r2273 b3065e6
Encoding settings : cabac=1 / ref=7 / deblock=1:-3:-3 / analyse=0x3:0x133 / me=umh / subme=10 / psy=1 / psy_rd=1.00:0.15 / mixed_ref=1 / me_range=32 / chroma_me=1 / trellis=2 / 8x8dct=1 / cqm=0 / deadzone=21,11 / fast_pskip=0 / chroma_qp_offset=-3 / threads=3 / lookahead_threads=1 / sliced_threads=0 / nr=0 / decimate=1 / interlaced=0 / bluray_compat=0 / constrained_intra=0 / bframes=10 / b_pyramid=2 / b_adapt=2 / b_bias=0 / direct=3 / weightb=1 / open_gop=0 / weightp=2 / keyint=240 / keyint_min=24 / scenecut=40 / intra_refresh=0 / rc_lookahead=60 / rc=2pass / mbtree=1 / bitrate=2170 / ratetol=1.0 / qcomp=0.60 / qpmin=0 / qpmax=69 / qpstep=4 / cplxblur=20.0 / qblur=0.5 / vbv_maxrate=62500 / vbv_bufsize=78125 / nal_hrd=none / ip_ratio=1.40 / aq=1:1.00
Language : English
Default : Yes
Forced : No
Color primaries : BT.709
Transfer characteristics : BT.709
Matrix coefficients : BT.709

Audio #1
ID : 2
Format : AC-3
Format/Info : Audio Coding 3
Mode extension : CM (complete main)
Format settings, Endianness : Big
Codec ID : A_AC3
Duration : 1h 36mn
Bit rate mode : Constant
Bit rate : 448 Kbps
Channel(s) : 6 channels
Channel positions : Front: L C R, Side: L R, LFE
Sampling rate : 48.0 KHz
Bit depth : 16 bits
Compression mode : Lossy
Stream size : 308 MiB (14%)
Title : 48 KHz, AC3, 6 ch ~448 Kbps - MVO [DVD Групп]
Language : Russian
Default : Yes
Forced : No

Audio #2
ID : 3
Format : AC-3
Format/Info : Audio Coding 3
Mode extension : CM (complete main)
Format settings, Endianness : Big
Codec ID : A_AC3
Duration : 1h 36mn
Bit rate mode : Constant
Bit rate : 192 Kbps
Channel(s) : 2 channels
Channel positions : Front: L R
Sampling rate : 48.0 KHz
Bit depth : 16 bits
Compression mode : Lossy
Stream size : 132 MiB (6%)
Title : 48 KHz, AC3, 2 ch ~192 Kbps - AVO [Ю. Сербин]
Language : Russian
Default : No
Forced : No

Audio #3
ID : 4
Format : AC-3
Format/Info : Audio Coding 3
Mode extension : CM (complete main)
Format settings, Endianness : Big
Codec ID : A_AC3
Duration : 1h 36mn
Bit rate mode : Constant
Bit rate : 448 Kbps
Channel(s) : 6 channels
Channel positions : Front: L C R, Side: L R, LFE
Sampling rate : 48.0 KHz
Bit depth : 16 bits
Compression mode : Lossy
Stream size : 308 MiB (14%)
Title : 48 KHz, AC3, 6 ch ~448 Kbps - Original
Language : English
Default : No
Forced : No

Menu
00:00:00.000 : en:Chapter 1
00:09:49.046 : en:Chapter 2
00:17:42.019 : en:Chapter 3
00:27:14.007 : en:Chapter 4
00:36:26.058 : en:Chapter 5
00:46:03.010 : en:Chapter 6
00:55:42.047 : en:Chapter 7
01:05:49.028 : en:Chapter 8
01:24:02.037 : en:Chapter 10
01:32:31.003 : en:Chapter 11



Скачать Исполнитель.желаний.2.Зло.бессмертно.Wishmaster.2.Evil.Never.Dies.(Джек.Шолдер).[1999.ужасы.фэнтези.WEB-DLRip-AVC].[MVO]+[AVO]+[Оригинал].torrent без регистрации
Золото ЗОЛОТАЯ РАЗДАЧА! СКАЧАННОЕ НЕ ЗАСЧИТЫВАЕТСЯ! Золото
Дата: Зарегистрирован   [ Тип: внутренний ] Как тут cкачать?
MAGNET ссылка
MAGNET ссылка


Скачать .torrent

12 KB

Статус: проверено DHT
Скачан: торрент - 118 раз, раздача полностью - 14 раз
Размер: 2,19 GB
Оценка:  - (Голосов: 0)
Поблагодарили: 0
Поделиться ссылкой на эту раздачу с друзьями:
В контактеFacebookОдноклассникиTwitterLivejournalМой МирLiveinternet
 

 
Показать сообщения:    


Вы не можете начинать темы
Вы не можете отвечать на сообщения
Вы не можете редактировать свои сообщения
Вы не можете удалять свои сообщения
Вы не можете голосовать в опросах
Вы не можете прикреплять файлы к сообщениям
Вы можете скачивать файлы