Loading...
Error

Скачать Резня в школе / Slaughter High (Джордж Дагдэйл, Марк Эзра, Питер Маккензи Литтен) [1986, ужасы, комедия, DVDRip-AVC] [DVO]+[Оригинал] торрент без регистрации

 
Статистика раздачи
Размер:  1,45 GB   |    Скачан:  104 раза

Полного источника не было: 30 минут

 
Автор Сообщение

Marsianka

[] 

Информация о фильме
Название: Резня в школе
Оригинальное название: Slaughter High
Год выхода: 1986
Жанр: ужасы, комедия
Режиссер: Джордж Дагдэйл, Марк Эзра, Питер Маккензи Литтен
В ролях: Кэролайн Манро, Саймон Скуддамор, Кармине Яннакконе, Донна Йеджер, Гари Мартин, Билли Хартмен, Майкл Саффран, Джон Сигал, Келли Бэйкер, Сэлли Кросс.

О фильме:
В колледже городка Daddsville студенты на день первоапрельского дурака устраивают несколько жестоких розыгрышей, один из которых закачивается трагедией: в результате пожара в химической лаборатории подросток Марти получает серьезные ожоги.

Проходит много лет. Однажды бывшие выпускники школы 1 апреля приглашаются на встречу школьных друзей. Но вскоре молодые люди понимают, что собрали всех их вместе в школе не случайно. Кто-то готовит им страшную месть…



Страна: Великобритания, США
Продолжительность: 01:26:43
Перевод: Профессиональный (двухголосый) ТВ3

Файл
Кодек: h.264
Качество: DVDRip-AVC
Видео: MPEG-4, 716x576 @1024x576, 23.976 fps ~1975 kbps

1) 48 KHz, AC3, 2 ch ~192 Kbps - DVO [ТВ3]
2) 48 KHz, AC3, 2 ch ~224 Kbps - Original
General
Unique ID : 186377161677908190855594967498991266299 (0x8C36EF879482C5C6BA8F2A3DDC02E9FB)
Format : Matroska
Format version : Version 4 / Version 2
File size : 1.45 GiB
Duration : 1h 26mn
Overall bit rate : 2 392 Kbps
Encoded date : UTC 2015-06-15 11:36:37
Writing application : mkvmerge v7.9.0 ('Birds') 64bit
Writing library : Lavf55.12.0
Attachements : Cover.jpg

Video
ID : 1
Format : AVC
Format/Info : Advanced Video Codec
Format profile : High@L4.1
Format settings, CABAC : Yes
Format settings, ReFrames : 11 frames
Codec ID : V_MPEG4/ISO/AVC
Duration : 1h 26mn
Bit rate : 1 975 Kbps
Width : 716 pixels
Height : 576 pixels
Display aspect ratio : 16:9
Frame rate mode : Constant
Frame rate : 25.000 fps
Color space : YUV
Chroma subsampling : 4:2:0
Bit depth : 8 bits
Scan type : Progressive
Bits/(Pixel*Frame) : 0.192
Stream size : 1.17 GiB (81%)
Title : MPEG-4, 716x576 @1024x576, 23.976 fps ~1975 kbps
Writing library : x264 core 142 r2479 dd79a61
Encoding settings : cabac=1 / ref=11 / deblock=1:-2:-1 / analyse=0x3:0x113 / me=umh / subme=11 / psy=1 / psy_rd=1.00:0.15 / mixed_ref=1 / me_range=24 / chroma_me=1 / trellis=2 / 8x8dct=1 / cqm=0 / deadzone=21,11 / fast_pskip=0 / chroma_qp_offset=-3 / threads=6 / lookahead_threads=1 / sliced_threads=0 / nr=0 / decimate=1 / interlaced=0 / bluray_compat=0 / constrained_intra=0 / bframes=13 / b_pyramid=2 / b_adapt=2 / b_bias=0 / direct=3 / weightb=1 / open_gop=0 / weightp=2 / keyint=250 / keyint_min=25 / scenecut=40 / intra_refresh=0 / rc_lookahead=50 / rc=2pass / mbtree=0 / bitrate=1975 / ratetol=1.0 / qcomp=0.60 / qpmin=0 / qpmax=69 / qpstep=4 / cplxblur=20.0 / qblur=0.5 / vbv_maxrate=62500 / vbv_bufsize=78125 / nal_hrd=none / filler=0 / ip_ratio=1.40 / pb_ratio=1.30 / aq=1:1.00
Language : English
Default : Yes
Forced : No
Color range : Limited
Color primaries : BT.601 PAL
Transfer characteristics : BT.709
Matrix coefficients : BT.601
DURATION : 01:26:43.000000000
NUMBER_OF_FRAMES : 130075
NUMBER_OF_BYTES : 1283529271
_STATISTICS_WRITING_APP : mkvmerge v7.9.0 ('Birds') 64bit
_STATISTICS_WRITING_DATE_UT : 2015-06-15 11:36:37
_STATISTICS_TAGS : BPS DURATION NUMBER_OF_FRAMES NUMBER_OF_BYTES

Audio #1
ID : 2
Format : AC-3
Format/Info : Audio Coding 3
Mode extension : CM (complete main)
Format settings, Endianness : Big
Codec ID : A_AC3
Duration : 1h 26mn
Bit rate mode : Constant
Bit rate : 192 Kbps
Channel(s) : 2 channels
Channel positions : Front: L R
Sampling rate : 48.0 KHz
Compression mode : Lossy
Stream size : 119 MiB (8%)
Title : 48 KHz, AC3, 2 ch ~192 Kbps - MVO [ТВ3]
Language : Russian
Default : Yes
Forced : No
DURATION : 01:26:43.008000000
NUMBER_OF_FRAMES : 162594
NUMBER_OF_BYTES : 124872192
_STATISTICS_WRITING_APP : mkvmerge v7.9.0 ('Birds') 64bit
_STATISTICS_WRITING_DATE_UT : 2015-06-15 11:36:37
_STATISTICS_TAGS : BPS DURATION NUMBER_OF_FRAMES NUMBER_OF_BYTES

Audio #2
ID : 3
Format : AC-3
Format/Info : Audio Coding 3
Mode extension : CM (complete main)
Format settings, Endianness : Big
Codec ID : A_AC3
Duration : 1h 26mn
Bit rate mode : Constant
Bit rate : 224 Kbps
Channel(s) : 2 channels
Channel positions : Front: L R
Sampling rate : 48.0 KHz
Compression mode : Lossy
Stream size : 139 MiB (9%)
Title : 48 KHz, AC3, 2 ch ~224 Kbps - Original
Language : English
Default : No
Forced : No
DURATION : 01:26:43.008000000
NUMBER_OF_FRAMES : 162594
NUMBER_OF_BYTES : 145684224
_STATISTICS_WRITING_APP : mkvmerge v7.9.0 ('Birds') 64bit
_STATISTICS_WRITING_DATE_UT : 2015-06-15 11:36:37
_STATISTICS_TAGS : BPS DURATION NUMBER_OF_FRAMES NUMBER_OF_BYTES

Menu
00:00:00.000 : :Chapter 1
00:11:55.280 : :Chapter 2
00:29:00.560 : :Chapter 3
00:42:58.960 : :Chapter 4
00:56:58.480 : :Chapter 5
01:10:53.680 : :Chapter 6
01:18:55.760 : :Chapter 7



Скачать Резня.в.школе.Slaughter.High.(Джордж.Дагдэйл.Марк.Эзра.Питер.Маккензи.Литтен).[1986.ужасы.комедия.DVDRip-AVC].[DVO]+[Оригинал].torrent без регистрации
Золото ЗОЛОТАЯ РАЗДАЧА! СКАЧАННОЕ НЕ ЗАСЧИТЫВАЕТСЯ! Золото
Дата: Зарегистрирован   [ Тип: внутренний ] Как тут cкачать?
MAGNET ссылка
MAGNET ссылка


Скачать .torrent

15 KB

Статус: проверено DHT
Скачан: торрент - 104 раз, раздача полностью - 1 раз
Размер: 1,45 GB
Оценка:  - (Голосов: 0)
Поблагодарили: 1
Поделиться ссылкой на эту раздачу с друзьями:
В контактеFacebookОдноклассникиTwitterLivejournalМой МирLiveinternet
 

 
Показать сообщения:    


Вы не можете начинать темы
Вы не можете отвечать на сообщения
Вы не можете редактировать свои сообщения
Вы не можете удалять свои сообщения
Вы не можете голосовать в опросах
Вы не можете прикреплять файлы к сообщениям
Вы можете скачивать файлы