Loading...
Error

Скачать Вызов / Непокорная Земля / Defiance (03х01-11 из 13) (Майкл Нанкин) [2015, фантастика, боевик, драма , WEB-DLRip] [MVO (BaibaKo)]+[Eng] торрент без регистрации

 
Статистика раздачи
Размер:  5,7 GB   |    Скачан:  164 раза
Сидов:  1  [  0 KB/s  ]  
 
Автор Сообщение

МихаНЕзатор

[] 

Непокорная Земля / Вызов
Defiance

Год выпуска: 2015
Страна: США
Жанр: Фантастика, боевик, драма
Продолжительность: 01:23:10
Перевод: Профессиональный (многоголосый закадровый) BaibaKo
Режиссёр: Майкл Нанкин, Энди Волк, Аллен Крокер

В ролях: Грант Боулер (Джошуа Нолан), Джулия Бенц (Аманда Роузвотер), Стефани Леонидас (Ириса), Тони Карран (Датак Тарра), Джейми Мюррей (Стахма Тарр), Грэхэм Грин (Рэйф МакКоули), Миа Киршнер (Кенья), Джесси Рат (Алака Тарра), Тринна Китин (Доктор Юл), Джастин Рэйн (Квентин МакКоули), Николь Муньос (Кристи МакКоули), Дюшейн Уильямс (Томми ЛаСэйл), Джим Мюррей (Найлз Поттингер), Анна Хопкинс (Джессика «Берлин» Рэйнер)

Описание: В то время, как Аманда Роузвотер вновь занимает место мэра города Вызов, Нолан и Ириса считаются пропавшими без вести. Земная Республика (E-Rep) отправляет на север людей, которые находились в городе. В город прибывает Индоген-Кения с планом мести. Датак, Рэйф и Стахма пытаются разыскать Пилар и детей, которых она забрала с собой. Европа крайне обеспокоена событиями, которые произошли в Нью-Йорке и желает получить подтверждение гибели Ирисы. Поэтому в Вызов прибывают шпионы из Франции. Между тем Аманда узнает о том, что в Сибири находится главная лаборатория Индогенов.
Доп. информация: Без рекламных ВидеоАудио вставок



Качество: WEB-DLRip
Формат: AVI
Видео: XviD, 720x400 (16:9), 23,976 fps, 1600 kbps
Аудио: MP3, 48 kHz, 2 ch, 192 kbps - Rus
Аудио: MP3, 48 kHz, 2 ch, 192 kbps - Eng
Субтитры: отсутствуют

АНОНСЫ ПОПУЛЯРНЫХ РАЗДАЧ


Торрент обновлён, добавлена 11-я серия!

01. Мир у наших ног
02. Последний единорог
03. Сломанная ветка
04. Спёртый воздух
05. Волны истории
06. Яблоко от яблони
07. Прелесть нашего оружия
08. Меня зовут Дейтак Тарр и я пришел убить тебя
09. Остинато в белом
10. Когда сумерки скрывают небо

Код:

Формат                                   : AVI
Формат/Информация                        : Audio Video Interleave
Размер файла                             : 1,16 Гбайт
Продолжительность                        : 1 ч. 23 м.
Общий поток                              : 1997 Кбит/сек
Программа кодирования                    : VirtualDubMod 1.5.10.3 (build 2550/release)
Библиотека кодирования                   : VirtualDubMod build 2550/release
Видео
Идентификатор                            : 0
Формат                                   : MPEG-4 Visual
Профиль формата                          : Advanced Simple@L5
Параметр BVOP формата                    : 2
Параметр QPel формата                    : Нет
Параметр GMC формата                     : Без точки перехода
Параметр матрицы формата                 : Default (MPEG)
Идентификатор кодека                     : XVID
Идентификатор кодека/Подсказка           : XviD
Продолжительность                        : 1 ч. 23 м.
Битрейт                                  : 1599 Кбит/сек
Ширина                                   : 720 пикселей
Высота                                   : 400 пикселей
Соотношение сторон                       : 16:9
Частота кадров                           : 23,976 кадра/сек
Цветовое пространство                    : YUV
Субдискретизация насыщенности            : 4:2:0
Битовая глубина                          : 8 бит
Тип развёртки                            : Прогрессивная
Метод сжатия                             : С потерями
Бит/(Пиксели*Кадры)                      : 0.232
Размер потока                            : 951 Мбайт (80%)
Библиотека кодирования                   : XviD 1.2.1 (UTC 2008-12-04)
Аудио #1
Идентификатор                            : 1
Формат                                   : MPEG Audio
Версия формата                           : Version 1
Профиль формата                          : Layer 3
Режим                                    : Joint stereo
Идентификатор кодека                     : 55
Идентификатор кодека/Подсказка           : MP3
Продолжительность                        : 1 ч. 23 м.
Вид битрейта                             : Постоянный
Битрейт                                  : 192 Кбит/сек
Каналы                                   : 2 канала
Частота                                  : 48,0 КГц
Метод сжатия                             : С потерями
Размер потока                            : 114 Мбайт (10%)
Выравнивание                             : Соединение по промежуткам
Продолжительность промежутка             : 42  мс. (1,00 видеокадр)
Время предзагрузки промежутка            : 504  мс.
Аудио #2
Идентификатор                            : 2
Формат                                   : MPEG Audio
Версия формата                           : Version 1
Профиль формата                          : Layer 3
Режим                                    : Joint stereo
Идентификатор кодека                     : 55
Идентификатор кодека/Подсказка           : MP3
Продолжительность                        : 1 ч. 23 м.
Вид битрейта                             : Постоянный
Битрейт                                  : 192 Кбит/сек
Каналы                                   : 2 канала
Частота                                  : 48,0 КГц
Метод сжатия                             : С потерями
Размер потока                            : 114 Мбайт (10%)
Выравнивание                             : Соединение по промежуткам
Продолжительность промежутка             : 42  мс. (1,00 видеокадр)
Время предзагрузки промежутка            : 504  мс.
Внимание! Раздача ведётся путём добавления новых серий; при каждом добавлении создаётся новый торрент. Чтобы начать докачку новой серии, пользователям необходимо сделать следующее:
(1) остановить скачивание,
(2) удалить старый торрент у себя из клиента (старые серии удалять не надо),
(3) скачать новый торрент и запустить его у себя в клиенте вместо старого, при этом указать клиенту путь в старую папку куда и должно происходить скачивание новых серий.
Ваш клиент при этом должен произвести хеширование (проверку) старой папки (если не производит сам - помогите ему сделать это), и будет докачивать только те серии которых у вас ещё нет. Старые серии при этом не удаляются, а продолжают раздаваться!
Eсли вы уже удалили старые серии, то предотвратить повторную закачку старых серий можно, отжав галочку в соответствующих местах при запуске нового торрента. По возможности, желательно не удалять старые серии как можно дольше чтобы релизёр не столько продолжал раздавать старые серии, а смог сконцентрироваться на новых.



Скачать Вызов.Непокорная.Земля.Defiance.(03х01-11.из.13).(Майкл.Нанкин).[2015.фантастика.боевик.драма.WEB-DLRip].[MVO.(BaibaKo)]+[Eng].torrent без регистрации
Золото ЗОЛОТАЯ РАЗДАЧА! СКАЧАННОЕ НЕ ЗАСЧИТЫВАЕТСЯ! Золото
Дата: Зарегистрирован   [ Тип: внутренний ] Как тут cкачать?
MAGNET ссылка
MAGNET ссылка


Скачать .torrent

30 KB

Статус: проверено DHT
Скачан: торрент - 164 раз, раздача полностью - 0 раз
Размер: 5,7 GB
Оценка:  4 (Голосов: 1)
Поблагодарили: 3
Поделиться ссылкой на эту раздачу с друзьями:
В контактеFacebookОдноклассникиTwitterLivejournalМой МирLiveinternet
 

 
Показать сообщения:    


Вы не можете начинать темы
Вы не можете отвечать на сообщения
Вы не можете редактировать свои сообщения
Вы не можете удалять свои сообщения
Вы не можете голосовать в опросах
Вы не можете прикреплять файлы к сообщениям
Вы можете скачивать файлы