Loading...
Error

Скачать Альфа-дом / Alpha House (сезон 01) (Майкл Майер и др.) [2013-2014, комедия, драма, BDRip] [720p] [DVO (Кубик в кубе)]+[Eng] торрент без регистрации

 
Статистика раздачи
Размер:  17,17 GB   |    Скачан:  147 раз
Сидов:  1  [  0 KB/s  ]  
 
Автор Сообщение

МихаНЕзатор

[] 

Информация о сериале
Название: Альфа-дом
Оригинальное название: Alpha House
Год выхода: 2013-2014
Жанр: комедия, драма
Автор идеи: Гарри Трюдо /Garry Trudeau/
Режиссеры: Майкл Майер /Michael Mayer/, Эндрю МакКарти /Andrew McCarthy/, Боб Бэлабан /Bob Balaban/ и др.

В ролях: Джон Гудман /John Goodman/, Кларк Джонсон /Clark Johnson/, Мэтт Мэллой /Matt Malloy/, Марк Консуэлос /Mark Consuelos/, Яра Мартинес /Yara Martinez/, Джули Уайт /Julie White/, Алисия Сэйбл /Alicia Sable/, Брук Блум /Brooke Bloom/, Бен Рамика /Ben Rameaka/, Натали Голд /Natalie Gold/ и др.

О сериале: Сериал рассказывает о жизни четырех сенаторов, которые живут в Вашингтоне в арендованном доме все вместе, во время заседаний американского конгресса. Именно здесь они чувствуют себя в безопасности и могут обсудить важные государственные дела, не опасаясь прослушки. Но о месте проживания политиков становится известно корреспондентке известного издания.

Релиз от:
by BS666

Страна: США
Студии: Amazon Studios / Sid Kibbitz Productions
Продолжительность: 11 x ~ 00:24:00
Перевод: Профессиональный (двухголосый, закадровый) - Кубик в кубе

Перевод: Василий Мерзляков
Озвучка: Руслан Габидуллин и Ольга Кравцова
Работа со звуком: BS666
Рип: DEMAND

Файл
Кодек: H.264
Качество: BDRip 720p
Видео: 1280x720 at 23.976 fps, x264@L4.1, 2pass, 4800 kbps avg
Аудио#1: Russian: 48 kHz, DTS, 3/2 (L,C,R,l,r) + LFE ch, ~1510.00 kbps avg |Двухголосый закадровый, Кубик в кубе|
Аудио#2: English: 48 kHz, DTS, 3/2 (L,C,R,l,r) + LFE ch, ~1510.00 kbps avg |Оригинал|
Субтитры: none

АНОНСЫ ПОПУЛЯРНЫХ РАЗДАЧ

01. Pilot / Пилотная серия
02. No Shame / Без совести
03. All Weapons Red / Полная боеготовность
04. Triggers / Спусковой механизм
05. Hippo Issues / Проблемы с бегемотом
06. Zingers / Остроумие
07. Prayer Brunch / Молельный завтрак
08. Ruby Shoals / Руби Шолс
09. The Rebuttal / Опровержение
10. Showgirls / Танцовщицы
11. In the Saddle / На коне
General
Complete name : Alpha.House.S01E01.720p.Blu-Ray.x264-CasStudio.mkv
Format : Matroska
Format version : Version 4 / Version 2
File size : 1.35 GiB
Duration : 24mn 31s
Overall bit rate : 7 868 Kbps
Movie name : Alpha.House.S01E01.720p.Blu-Ray.x264-CasStudio
Encoded date : UTC 2014-12-26 18:11:20
Writing application : mkvmerge v7.4.0 ('Circles') 32bit built on Dec 12 2014 12:10:09
Writing library : libebml v1.3.0 + libmatroska v1.4.1
Attachements : Cover
DURATION : 00:24:31.062000000
NUMBER_OF_FRAMES : 137912
NUMBER_OF_BYTES : 277616856
_STATISTICS_WRITING_APP : mkvmerge v7.4.0 ('Circles') 32bit built on Dec 12 2014 12:10:09
_STATISTICS_WRITING_DATE_UTC : 2014-12-26 18:11:20
_STATISTICS_TAGS : BPS DURATION NUMBER_OF_FRAMES NUMBER_OF_BYTES

Video
ID : 1
Format : AVC
Format/Info : Advanced Video Codec
Format profile : High@L4.1
Format settings, CABAC : Yes
Format settings, ReFrames : 5 frames
Codec ID : V_MPEG4/ISO/AVC
Duration : 24mn 31s
Bit rate : 4 845 Kbps
Width : 1 280 pixels
Height : 720 pixels
Display aspect ratio : 16:9
Frame rate mode : Constant
Frame rate : 23.976 fps
Color space : YUV
Chroma subsampling : 4:2:0
Bit depth : 8 bits
Scan type : Progressive
Bits/(Pixel*Frame) : 0.219
Stream size : 823 MiB (60%)
Writing library : x264 core 142 r2431 ac76440
Encoding settings : cabac=1 / ref=5 / deblock=1:0:0 / analyse=0x3:0x133 / me=umh / subme=7 / psy=1 / psy_rd=1.00:0.00 / mixed_ref=1 / me_range=16 / chroma_me=1 / trellis=1 / 8x8dct=1 / cqm=0 / deadzone=21,11 / fast_pskip=0 / chroma_qp_offset=-2 / threads=18 / lookahead_threads=3 / sliced_threads=0 / nr=0 / decimate=1 / interlaced=0 / bluray_compat=0 / constrained_intra=0 / bframes=3 / b_pyramid=2 / b_adapt=1 / b_bias=0 / direct=1 / weightb=1 / open_gop=0 / weightp=2 / keyint=250 / keyint_min=23 / scenecut=40 / intra_refresh=0 / rc_lookahead=40 / rc=2pass / mbtree=1 / bitrate=4845 / ratetol=1.0 / qcomp=0.60 / qpmin=0 / qpmax=69 / qpstep=4 / cplxblur=20.0 / qblur=0.5 / ip_ratio=1.40 / aq=1:1.00
Language : English
Default : Yes
Forced : No
DURATION : 00:24:31.014000000
NUMBER_OF_FRAMES : 35269
NUMBER_OF_BYTES : 890884894
_STATISTICS_WRITING_APP : mkvmerge v7.4.0 ('Circles') 32bit built on Dec 12 2014 12:10:09
_STATISTICS_WRITING_DATE_UTC : 2014-12-26 18:11:20
_STATISTICS_TAGS : BPS DURATION NUMBER_OF_FRAMES NUMBER_OF_BYTES

Audio #1
ID : 2
Format : DTS
Format/Info : Digital Theater Systems
Mode : 16
Format settings, Endianness : Big
Codec ID : A_DTS
Duration : 24mn 31s
Bit rate mode : Constant
Bit rate : 1 510 Kbps
Channel(s) : 6 channels
Channel positions : Front: L C R, Side: L R, LFE
Sampling rate : 48.0 KHz
Bit depth : 24 bits
Compression mode : Lossy
Stream size : 265 MiB (19%)
Language : Russian
Default : Yes
Forced : No

Audio #2
ID : 3
Format : DTS
Format/Info : Digital Theater Systems
Mode : 16
Format settings, Endianness : Big
Codec ID : A_DTS
Duration : 24mn 31s
Bit rate mode : Constant
Bit rate : 1 509 Kbps
Channel(s) : 6 channels
Channel positions : Front: L C R, Side: L R, LFE
Sampling rate : 48.0 KHz
Bit depth : 24 bits
Compression mode : Lossy
Stream size : 265 MiB (19%)
Language : English
Default : No
Forced : No

Menu
00:00:00.000 : en:00:00:00.000
00:02:21.433 : en:00:02:21.433
00:08:04.693 : en:00:08:04.693
00:18:52.631 : en:00:18:52.631
00:22:52.079 : en:00:22:52.079
ЦитатаКто-то писал:
Сохранены оригинальные главы как на Blu-ray.
В переводе присутствует ненормативная лексика.



Скачать Альфа-дом.Alpha.House.(сезон.01).(Майкл.Майер.и.др.).[2013-2014.комедия.драма.BDRip].[720p].[DVO.(Кубик.в.кубе)]+[Eng].torrent без регистрации
Золото ЗОЛОТАЯ РАЗДАЧА! СКАЧАННОЕ НЕ ЗАСЧИТЫВАЕТСЯ! Золото
Дата: Зарегистрирован   [ Тип: внутренний ] Как тут cкачать?
MAGNET ссылка
MAGNET ссылка


Скачать .torrent

88 KB

Статус: проверено DHT
Скачан: торрент - 147 раз, раздача полностью - 7 раз
Размер: 17,17 GB
Оценка:  - (Голосов: 0)
Поблагодарили: 1
Поделиться ссылкой на эту раздачу с друзьями:
В контактеFacebookОдноклассникиTwitterLivejournalМой МирLiveinternet
 

 
Показать сообщения:    


Вы не можете начинать темы
Вы не можете отвечать на сообщения
Вы не можете редактировать свои сообщения
Вы не можете удалять свои сообщения
Вы не можете голосовать в опросах
Вы не можете прикреплять файлы к сообщениям
Вы можете скачивать файлы