Loading...
Error

Скачать Потерянный город / The Lost City (Энди Гарсиа) [2005, драма, BDRip-AVC] [Dub]+[MVO]+[Оригинал]+[Sub]x2 торрент без регистрации

 
Статистика раздачи
Размер:  4,57 GB   |    Скачан:  91 раз
Сидов:  1  [  0 KB/s  ]  
 
Автор Сообщение

Marsianka

[] 

Информация о фильме
Название: Потерянный город
Оригинальное название: The Lost City
Год выхода: 2005
Жанр: драма
Режиссер: Энди Гарсиа
В ролях: Энди Гарсиа, Дастин Хоффман, Билл Мюррэй, Инес Састре, Томас Милиэн, Энрике Муркьяно, Нестор Карбонелл, Виктор Риверс, Стивен Бауэр, Доминик Гарсиа-Лоридо, Хуан Фернандес, Гонсало Менендес, Дэвид Мичи, Марио Эрнесто Санчес

О фильме:
1958 год. Столица Кубы Гавана – идеальное место для отдыха и развлечений многих людей. Однако есть и те, кому пришелся не по нраву диктаторский режим Батисты. Революционное движение под предводительством Фиделя Кастро и Эрнесто Че Гевары стремительно набирает силу и готовится совершить переворот в Гаване… Несмотря на ход исторических событий, Фико Феллови – владелец лучшего музыкального ночного клуба «Эль Тропико» – стремится наладить жизнь своей семьи и любимой женщины, еще не подозревая, что его клуб в скором времени станет чем-то большим, нежели сценой для популярного шоу. Выходец из Америки, писатель, наблюдает за тем, как изменяются вещи, бывшие для Фико привычными до этих событий. Перемены в людях и их культуре не проходят бесследно, но единственная вещь, неспособная меняться так же быстро – это кубинская музыка, что живет в памяти героя!..



Страна: США
Студия: Crescent Drive Pictures, CineSon Entertainment, Lions Gate Films, Platinum Equity
Продолжительность: 02:24:21
Перевод: Русский дублированный, украинский профессиональный многоголосый

Файл
Кодек: MPEG-4 AVC
Качество: BDRip-AVC
Видео: 3191 Кбит/с, 1024x568, 23.976 кадр/c
Звук: Русский, украинский, английский (AC3, 6 ch, 448 Кбит/с)
Субтитры: Русские, английские
Рип от StarbirS

Аудио#1: Русский: 48 kHz, AC3, 3/2 (L,C,R,l,r) + LFE ch, ~448.00 kbps avg - Дублированный (R5)
Аудио#2: Украинский: 48 kHz, AC3, 3/2 (L,C,R,l,r) + LFE ch, ~448.00 kbps avg - Профессиональный многоголосый (ТОНІС)
Aудио#3: Английский 48 kHz, AC3, 3/2 (L,C,R,l,r) + LFE ch, ~448.00 kbps avg - Оригинал

Субтитры: Русские, английские

x264 [info]: frame I:1561 Avg QP:17.31 size: 92786
x264 [info]: frame P:41370 Avg QP:20.52 size: 34296
x264 [info]: frame B:164717 Avg QP:22.38 size: 11461
Формат : Matroska
Версия формата : Version 2
Размер файла : 4,57 Гбайт
Продолжительность : 2 ч. 24 м.
Общий поток : 4535 Кбит/сек
Название фильма : The.Lost.City.2005.x264.BDRip.AVC.Rus.Ukr.Eng
Дата кодирования : UTC 2015-06-18 17:53:18
Программа кодирования : mkvmerge v7.9.0 ('Birds') 64bit
Библиотека кодирования : libebml v1.3.1 + libmatroska v1.4.2

Видео
Идентификатор : 1
Формат : AVC
Формат/Информация : Advanced Video Codec
Профиль формата : High@L4.1
Параметр CABAC формата : Да
Параметр ReFrames формата : 12 кадров
Идентификатор кодека : V_MPEG4/ISO/AVC
Продолжительность : 2 ч. 24 м.
Битрейт : 3191 Кбит/сек
Ширина : 1024 пикселя
Высота : 568 пикселей
Соотношение сторон : 16:9
Режим частоты кадров : Постоянный
Частота кадров : 23,976 кадра/сек
Цветовое пространство : YUV
Субдискретизация насыщенности : 4:2:0
Битовая глубина : 8 бит
Тип развёртки : Прогрессивная
Бит/(Пиксели*Кадры) : 0.229
Размер потока : 3,13 Гбайт (68%)
Заголовок : The.Lost.City.2005.x264.BDRip.AVC.Rus.Ukr.Eng.by.StarbirS
Библиотека кодирования : x264 core 146 r2538 121396c
Настройки программы : cabac=1 / ref=12 / deblock=1:-3:-3 / analyse=0x3:0x113 / me=umh / subme=11 / psy=1 / psy_rd=1.00:0.10 / mixed_ref=1 / me_range=32 / chroma_me=1 / trellis=2 / 8x8dct=1 / cqm=0 / deadzone=21,11 / fast_pskip=0 / chroma_qp_offset=-3 / threads=12 / lookahead_threads=2 / sliced_threads=0 / nr=0 / decimate=0 / interlaced=0 / bluray_compat=0 / constrained_intra=0 / bframes=9 / b_pyramid=2 / b_adapt=2 / b_bias=0 / direct=3 / weightb=1 / open_gop=1 / weightp=2 / keyint=240 / keyint_min=23 / scenecut=40 / intra_refresh=0 / rc=2pass / mbtree=0 / bitrate=3191 / ratetol=1.0 / qcomp=0.70 / qpmin=0 / qpmax=69 / qpstep=4 / cplxblur=20.0 / qblur=0.5 / ip_ratio=1.40 / pb_ratio=1.30 / aq=1:0.70
Язык : English
Default : Да
Forced : Нет

Аудио #1
Идентификатор : 2
Формат : AC-3
Формат/Информация : Audio Coding 3
Расширение режима : CM (complete main)
Параметр Endianness формата : Big
Идентификатор кодека : A_AC3
Продолжительность : 2 ч. 24 м.
Вид битрейта : Постоянный
Битрейт : 448 Кбит/сек
Каналы : 6 каналов
Расположение каналов : Front: L C R, Side: L R, LFE
Частота : 48,0 КГц
Метод сжатия : С потерями
Размер потока : 463 Мбайт (10%)
Заголовок : Дублированный (R5)
Язык : Russian
Default : Да
Forced : Нет

Аудио #2
Идентификатор : 3
Формат : AC-3
Формат/Информация : Audio Coding 3
Расширение режима : CM (complete main)
Параметр Endianness формата : Big
Идентификатор кодека : A_AC3
Продолжительность : 2 ч. 24 м.
Вид битрейта : Постоянный
Битрейт : 448 Кбит/сек
Каналы : 6 каналов
Расположение каналов : Front: L C R, Side: L R, LFE
Частота : 48,0 КГц
Метод сжатия : С потерями
Размер потока : 463 Мбайт (10%)
Заголовок : Профессиональный многоголосый (ТОНІС)
Язык : Ukrainian
Default : Нет
Forced : Нет

Аудио #3
Идентификатор : 4
Формат : AC-3
Формат/Информация : Audio Coding 3
Расширение режима : CM (complete main)
Параметр Endianness формата : Big
Идентификатор кодека : A_AC3
Продолжительность : 2 ч. 24 м.
Вид битрейта : Постоянный
Битрейт : 448 Кбит/сек
Каналы : 6 каналов
Расположение каналов : Front: L C R, Side: L R, LFE
Частота : 48,0 КГц
Метод сжатия : С потерями
Размер потока : 463 Мбайт (10%)
Язык : English
Default : Нет
Forced : Нет

Текст #1
Идентификатор : 5
Формат : UTF-8
Идентификатор кодека : S_TEXT/UTF8
Идентификатор кодека/Информация : UTF-8 Plain Text
Язык : Russian
Default : Нет
Forced : Нет

Текст #2
Идентификатор : 6
Формат : UTF-8
Идентификатор кодека : S_TEXT/UTF8
Идентификатор кодека/Информация : UTF-8 Plain Text
Язык : English
Default : Нет
Forced : Нет

Меню
00:00:00.000 : en:00:00:00.000
00:11:20.054 : en:00:11:20.054
00:18:02.372 : en:00:18:02.372
00:26:38.013 : en:00:26:38.013
00:36:58.883 : en:00:36:58.883
00:42:48.399 : en:00:42:48.399
00:47:40.190 : en:00:47:40.190
01:01:36.192 : en:01:01:36.192
01:13:26.735 : en:01:13:26.735
01:25:47.809 : en:01:25:47.809
01:39:53.153 : en:01:39:53.153
01:50:01.886 : en:01:50:01.886
02:02:52.531 : en:02:02:52.531
02:11:17.661 : en:02:11:17.661
02:15:22.322 : en:02:15:22.322
02:19:31.529 : en:02:19:31.529



Скачать Потерянный.город.The.Lost.City.(Энди.Гарсиа).[2005.драма.BDRip-AVC].[Dub]+[MVO]+[Оригинал]+[Sub]x2.torrent без регистрации
Золото ЗОЛОТАЯ РАЗДАЧА! СКАЧАННОЕ НЕ ЗАСЧИТЫВАЕТСЯ! Золото
Дата: Зарегистрирован   [ Тип: внутренний ] Как тут cкачать?
MAGNET ссылка
MAGNET ссылка


Скачать .torrent

24 KB

Статус: проверено DHT
Скачан: торрент - 91 раз, раздача полностью - 17 раз
Размер: 4,57 GB
Оценка:  - (Голосов: 0)
Поблагодарили: 0
Поделиться ссылкой на эту раздачу с друзьями:
В контактеFacebookОдноклассникиTwitterLivejournalМой МирLiveinternet
 

 
Показать сообщения:    


Вы не можете начинать темы
Вы не можете отвечать на сообщения
Вы не можете редактировать свои сообщения
Вы не можете удалять свои сообщения
Вы не можете голосовать в опросах
Вы не можете прикреплять файлы к сообщениям
Вы можете скачивать файлы