Loading...
Error

Скачать Хэллоуин: 20 лет спустя / Halloween H20: 20 Years Later (Стив Майнер) [1998, ужасы, триллер, BDRip-AVC] [MVO]+[AVO]x2+[Sub]x2 торрент без регистрации

 
Статистика раздачи
Размер:  1,97 GB   |    Скачан:  116 раз
Сидов:  1  [  0 KB/s  ]  
 
Автор Сообщение

Marsianka

[] 

Информация о фильме
Название: Хэллоуин: 20 лет спустя
Оригинальное название: Halloween H20: 20 Years Later
Год выхода: 1998
Жанр: ужасы, триллер
Режиссер: Стив Майнер
В ролях: Джейми Ли Кёртис, Адам Аркин, Мишель Уильямс, Адам Хэнн-Берд, Джоди Лин О’Кифи, Джанет Ли, Джош Хартнетт, ЭлЭл Кул Джей, Джозеф Гордон-Левитт, Брэндон Уильямс

О фильме: Спустя 20 лет Лори Строуд опять вынуждена бороться со своим прошлым! Эти годы она жила под вымышленным именем вместе с сыном Джоном. Но Майкл Майерс внезапно вернулся в ее жизнь с местью. С местью не только к Лори. Ужас начался для всего города! Когда группа студентов отправляется на праздник Хэллоуин, они оказываются в кровавой реке. И снова Лори должна спасти всех от исчадья Ада.



Страна: США
Студия: Dimension Films, Nightfall Productions
Продолжительность: 01:26:13
Перевод: Профессиональный многоголосый, авторский одноголосый (Гаврилов), (Визгунов)

Файл
Кодек: MPEG-4 AVC
Качество: BDRip-AVC
Видео: 1800 Кбит/с, 1024x438, 24.000 кадр/с

Аудио #1: Русский (AC3, 6 ch, 384 Кбит/с) / Профессиональный многоголосый (R5)
Аудио #2: Русский (AC3, 2 ch, 192 Кбит/с) / Авторский одноголосый (Гаврилов)
Аудио #3: Русский (AC3, 6 ch, 448 Кбит/с) / Авторский одноголосый (Визгунов)
Аудио #4: Английский (AC3, 6 ch, 448 Кбит/с)
Субтитры: Русские, английские
Семпл
Общее
Уникальный идентификатор : 253722214768835334575012888454906217065 (0xBEE11F00468C0E9CA6DDD84A51BF8269)
Полное имя : D:Мои РипыHjellouin.7.1998.x264.BDRip.AVC.MediaClub.mkv
Формат : Matroska
Версия формата : Version 4 / Version 2
Размер файла : 1,97 Гбайт
Продолжительность : 1 ч. 26 м.
Общий поток : 3274 Кбит/сек
Название фильма : = MediaClub = rip by krakatuq
Дата кодирования : UTC 2014-05-28 11:39:35
Программа кодирования : mkvmerge v6.6.0 ('The Edge Of The In Between') built on Dec 1 2013 17:55:00
Библиотека кодирования : libebml v1.3.0 + libmatroska v1.4.1

Видео
Идентификатор : 1
Формат : AVC
Формат/Информация : Advanced Video Codec
Профиль формата : High@L4.1
Параметр CABAC формата : Да
Параметр ReFrames формата : 9 кадров
Идентификатор кодека : V_MPEG4/ISO/AVC
Продолжительность : 1 ч. 26 м.
Битрейт : 1800 Кбит/сек
Ширина : 1024 пикселя
Высота : 438 пикселей
Соотношение сторон : 2,35:1
Режим частоты кадров : Постоянный
Частота кадров : 24,000 кадра/сек
Цветовое пространство : YUV
Субдискретизация насыщенности : 4:2:0
Битовая глубина : 8 бит
Тип развёртки : Прогрессивная
Бит/(Пиксели*Кадры) : 0.167
Размер потока : 1,05 Гбайт (53%)
Заголовок : Hjellouin.7.1998.x264.BDRip.AVC.MediaClub
Библиотека кодирования : x264 core 142 r2409+42 04be48a tMod [8-bit@4:2:0 X86]
Настройки программы : cabac=1 / ref=9 / deblock=1:-2:-2 / analyse=0x3:0x133 / me=umh / subme=11 / psy=1 / fade_compensate=0.00 / psy_rd=1.00:0.20 / mixed_ref=1 / me_range=32 / chroma_me=1 / trellis=2 / 8x8dct=1 / cqm=0 / deadzone=21,11 / fast_pskip=0 / chroma_qp_offset=-3 / threads=3 / lookahead_threads=1 / sliced_threads=0 / nr=0 / decimate=0 / interlaced=0 / bluray_compat=0 / constrained_intra=0 / fgo=0 / bframes=8 / b_pyramid=2 / b_adapt=2 / b_bias=0 / direct=3 / weightb=1 / open_gop=0 / weightp=2 / keyint=240 / keyint_min=23 / scenecut=40 / intra_refresh=0 / rc=2pass / mbtree=0 / bitrate=1800 / ratetol=1.0 / qcomp=0.60 / qpmin=0:0:0 / qpmax=69:69:69 / qpstep=4 / cplxblur=20.0 / qblur=0.5 / ip_ratio=1.40 / pb_ratio=1.30 / aq=1:1.00 / aq-sensitivity=10.00 / aq-factor=1.00:1.00:1.00 / aq2=0 / aq3=0
Язык : English
Default : Да
Forced : Нет

Аудио #1
Идентификатор : 2
Формат : AC-3
Формат/Информация : Audio Coding 3
Расширение режима : CM (complete main)
Параметр Endianness формата : Big
Идентификатор кодека : A_AC3
Продолжительность : 1 ч. 26 м.
Вид битрейта : Постоянный
Битрейт : 384 Кбит/сек
Каналы : 6 каналов
Расположение каналов : Front: L C R, Side: L R, LFE
Частота : 48,0 КГц
Битовая глубина : 16 бит
Метод сжатия : С потерями
Размер потока : 237 Мбайт (12%)
Заголовок : TRACK_01_MVO_RUS_R5
Язык : Russian
Default : Да
Forced : Да

Аудио #2
Идентификатор : 3
Формат : AC-3
Формат/Информация : Audio Coding 3
Расширение режима : CM (complete main)
Параметр Endianness формата : Big
Идентификатор кодека : A_AC3
Продолжительность : 1 ч. 26 м.
Вид битрейта : Постоянный
Битрейт : 192 Кбит/сек
Каналы : 2 канала
Расположение каналов : Front: L R
Частота : 48,0 КГц
Битовая глубина : 16 бит
Метод сжатия : С потерями
Размер потока : 118 Мбайт (6%)
Заголовок : TRACK_02_AVO_RUS_GAVRILOV
Язык : Russian
Default : Нет
Forced : Нет

Аудио #3
Идентификатор : 4
Формат : AC-3
Формат/Информация : Audio Coding 3
Расширение режима : CM (complete main)
Параметр Endianness формата : Big
Идентификатор кодека : A_AC3
Продолжительность : 1 ч. 26 м.
Вид битрейта : Постоянный
Битрейт : 448 Кбит/сек
Каналы : 6 каналов
Расположение каналов : Front: L C R, Side: L R, LFE
Частота : 48,0 КГц
Битовая глубина : 16 бит
Метод сжатия : С потерями
Размер потока : 276 Мбайт (14%)
Заголовок : TRACK_03_AVO_RUS_VIZGUNOV
Язык : Russian
Default : Нет
Forced : Нет

Аудио #4
Идентификатор : 5
Формат : AC-3
Формат/Информация : Audio Coding 3
Расширение режима : CM (complete main)
Параметр Endianness формата : Big
Идентификатор кодека : A_AC3
Продолжительность : 1 ч. 26 м.
Вид битрейта : Постоянный
Битрейт : 448 Кбит/сек
Каналы : 6 каналов
Расположение каналов : Front: L C R, Side: L R, LFE
Частота : 48,0 КГц
Битовая глубина : 16 бит
Метод сжатия : С потерями
Размер потока : 276 Мбайт (14%)
Заголовок : TRACK_04_ORIGINAL_ENG
Язык : English
Default : Нет
Forced : Нет

Текст #1
Идентификатор : 6
Формат : UTF-8
Идентификатор кодека : S_TEXT/UTF8
Идентификатор кодека/Информация : UTF-8 Plain Text
Заголовок : TEXT_01_SUB_RUS
Язык : Russian
Default : Нет
Forced : Нет

Текст #2
Идентификатор : 7
Формат : UTF-8
Идентификатор кодека : S_TEXT/UTF8
Идентификатор кодека/Информация : UTF-8 Plain Text
Заголовок : TEXT_02_SUB_ENG
Язык : English
Default : Нет
Forced : Нет

Меню
00:00:00.000 : en:Chapter 01
00:05:30.774 : en:Chapter 02
00:09:30.317 : en:Chapter 03
00:15:28.733 : en:Chapter 04
00:22:21.942 : en:Chapter 05
00:27:07.275 : en:Chapter 06
00:34:43.650 : en:Chapter 07
00:40:11.275 : en:Chapter 08
00:48:07.733 : en:Chapter 09
00:51:25.692 : en:Chapter 10
00:56:19.733 : en:Chapter 11
01:00:26.733 : en:Chapter 12
01:05:04.942 : en:Chapter 13
01:10:08.567 : en:Chapter 14
01:15:12.608 : en:Chapter 15
x264 [info]: frame I:925 Avg QP:14.63 size: 56490
x264 [info]: frame P:26663 Avg QP:17.72 size: 19827
x264 [info]: frame B:96572 Avg QP:19.72 size: 6031
Релиз от:

Автор рипа:



Скачать Хэллоуин.20.лет.спустя.Halloween.H20.20.Years.Later.(Стив.Майнер).[1998.ужасы.триллер.BDRip-AVC].[MVO]+[AVO]x2+[Sub]x2.torrent без регистрации
Золото ЗОЛОТАЯ РАЗДАЧА! СКАЧАННОЕ НЕ ЗАСЧИТЫВАЕТСЯ! Золото
Дата: Зарегистрирован   [ Тип: внутренний ] Как тут cкачать?
MAGNET ссылка
MAGNET ссылка


Скачать .torrent

21 KB

Статус: проверено DHT
Скачан: торрент - 116 раз, раздача полностью - 3 раз
Размер: 1,97 GB
Оценка:  - (Голосов: 0)
Поблагодарили: 0
Поделиться ссылкой на эту раздачу с друзьями:
В контактеFacebookОдноклассникиTwitterLivejournalМой МирLiveinternet
 

 
Показать сообщения:    


Вы не можете начинать темы
Вы не можете отвечать на сообщения
Вы не можете редактировать свои сообщения
Вы не можете удалять свои сообщения
Вы не можете голосовать в опросах
Вы не можете прикреплять файлы к сообщениям
Вы можете скачивать файлы