Loading...
Error

Скачать Пригоршня чудес / Pocketful of Miracles (Фрэнк Капра) [1961, драма, комедия, BDRip AVC] [MVO]+[Оригинал]+[Sub] торрент без регистрации

 
Статистика раздачи
Размер:  2,71 GB   |    Скачан:  122 раза
Сидов:  1  [  0 KB/s  ]  
 
Автор Сообщение

Marsianka

[] 

Название: Пригоршня чудес
Оригинальное название: Pocketful of Miracles
Год выпуска: 1961
Страна: США
Жанр: драма, комедия
Продолжительность: 02:17:05
Перевод: профессиональный многоголосый

Режиссёр: Фрэнк Капра

В ролях: Питер Фальк, Гленн Форд, Бетт Дэвис, Хоуп Лэнг, Артур О’Коннелл, Томас Митчелл, Эдвард Эверетт Хортон, Мики Шонесси, Дэвид Брайан, Шелдон Леонард, Питер Манн, Энн-Маргрет, Бартон МакЛэйн, Джон Лител, Джером Кауэн, Джей Новелло, Фрэнк Фергюсон, Уиллис Бучи, Фриц Фельд, Эллен Корби, Гэвин Гордон, Бенни Рубин, Джек Илэм, Майк Мазурки, Хейден Рорк, Дудлс Уивер, Бетти Бронсон, Пол Э. Барнс, Марк Кэвелл, Жаклин деВит, Джосип Элик, Том Фадден, Бернард Фейн, Бесс Флауэрс, Питер Форд

Описание: Нью-Йоркский гангстер Красавчик Дэйв — парень с предрассудками. Он считает, что с ним ничего не может случиться, если каждый день он будет покупать яблоко у Яблочной Энни, вечно поддатенькой торговки фруктами. Хотя его помощник Джой Бой и шофёр Джуниор считают это полной ерундой, его подружка всегда поддерживает всё, чтобы не произнес её дорогой Дэйв. В один прекрасный день Яблочной Энни не оказывается на обычном месте на углу улицы, и Дэйв отправляется её искать и застаёт в глубокой депрессии, так как её дочь Луиза (уверенная, что её матушка уважаемая богатая матрона) приезжает в гости. С помощью Дэйва Яблочная Энни чудесным образом преображается и выдаёт себя за «миссис И. Уортингтон Мэнвилл», которой услуживают даже мэр, губернатор и целая свора светской публики...



Качество: BDRip AVC Сравнение с исходником
Формат: MKV
Видео: MPEG-4 AVC, 2387 Кбит/с, 1024x436, 23,976 кадра/с
Аудио 1: русский, AC3, 192 kbps, 2 ch, 48 kHz [профессиональный многоголосый, Спб, 5 канал]
Аудио 2: английский, AC3, 192 kbps, 2 ch, 48 kHz [оригинал]
Субтитры: английские
Оскар, 1962 год
Номинации (3):
Лучшая мужская роль второго плана (Питер Фальк)
Лучшая работа художника по костюмам (цветные фильмы)
Лучшая песня — «Pocketful of Miracles»

Золотой глобус, 1962 год
Победитель (1):
Лучшая мужская роль (комедия или мюзикл) (Гленн Форд)

Номинации (2):
Лучшая женская роль (комедия или мюзикл) (Бетт Дэвис)
Лучший фильм (комедия)
Общее
Уникальный идентификатор : 190546759772883749062209475109782468048 (0x8F59F8966C0097919CA709F53B36B5D0)
Полное имя : D:VideoПригоршня чудес.1961.BDRip.AVC.mkv
Формат : Matroska
Версия формата : Version 4 / Version 2
Размер файла : 2,71 Гбайт
Продолжительность : 2 ч. 17 м.
Общий поток : 2827 Кбит/сек
Название фильма : BDRip -- STarankov
Дата кодирования : UTC 2015-06-14 15:59:21
Программа кодирования : mkvmerge v7.9.0 ('Birds') 64bit
Библиотека кодирования : libebml v1.3.1 + libmatroska v1.4.2
_STATISTICS_WRITING_APP : mkvmerge v7.9.0 ('Birds') 64bit
_STATISTICS_WRITING_DATE_UTC : 2015-06-14 15:59:21
_STATISTICS_TAGS : BPS DURATION NUMBER_OF_FRAMES NUMBER_OF_BYTES
DURATION : 02:16:12.914000000
NUMBER_OF_FRAMES : 2094
NUMBER_OF_BYTES : 84627

Видео
Идентификатор : 1
Формат : AVC
Формат/Информация : Advanced Video Codec
Профиль формата : High@L4.1
Параметр CABAC формата : Да
Параметр ReFrames формата : 9 кадров
Идентификатор кодека : V_MPEG4/ISO/AVC
Продолжительность : 2 ч. 17 м.
Битрейт : 2387 Кбит/сек
Ширина : 1024 пикселя
Высота : 436 пикселей
Соотношение сторон : 2,35:1
Режим частоты кадров : Постоянный
Частота кадров : 23,976 кадра/сек
Цветовое пространство : YUV
Субдискретизация насыщенности : 4:2:0
Битовая глубина : 8 бит
Тип развёртки : Прогрессивная
Бит/(Пиксели*Кадры) : 0.223
Размер потока : 2,29 Гбайт (84%)
Библиотека кодирования : x264 core 146 r2538 121396c
Настройки программы : cabac=1 / ref=9 / deblock=1:-1:-1 / analyse=0x3:0x113 / me=umh / subme=10 / psy=1 / psy_rd=1.00:0.15 / mixed_ref=1 / me_range=32 / chroma_me=1 / trellis=2 / 8x8dct=1 / cqm=0 / deadzone=21,11 / fast_pskip=1 / chroma_qp_offset=-3 / threads=6 / lookahead_threads=1 / sliced_threads=0 / nr=0 / decimate=1 / interlaced=0 / bluray_compat=0 / constrained_intra=0 / bframes=10 / b_pyramid=2 / b_adapt=2 / b_bias=0 / direct=1 / weightb=1 / open_gop=0 / weightp=2 / keyint=230 / keyint_min=23 / scenecut=40 / intra_refresh=0 / rc_lookahead=40 / rc=crf / mbtree=0 / crf=20.0 / qcomp=0.60 / qpmin=0 / qpmax=69 / qpstep=4 / vbv_maxrate=40000 / vbv_bufsize=50000 / crf_max=0.0 / nal_hrd=none / filler=0 / ip_ratio=1.40 / pb_ratio=1.30 / aq=1:1.00
Язык : English
Default : Да
Forced : Нет
DURATION : 02:17:05.301000000
NUMBER_OF_FRAMES : 197210
NUMBER_OF_BYTES : 2509625799
_STATISTICS_WRITING_APP : mkvmerge v7.9.0 ('Birds') 64bit
_STATISTICS_WRITING_DATE_UTC : 2015-06-14 15:59:21
_STATISTICS_TAGS : BPS DURATION NUMBER_OF_FRAMES NUMBER_OF_BYTES

Аудио #1
Идентификатор : 2
Формат : AC-3
Формат/Информация : Audio Coding 3
Расширение режима : CM (complete main)
Параметр Endianness формата : Big
Идентификатор кодека : A_AC3
Продолжительность : 2 ч. 17 м.
Вид битрейта : Постоянный
Битрейт : 192 Кбит/сек
Каналы : 2 канала
Расположение каналов : Front: L R
Частота : 48,0 КГц
Битовая глубина : 16 бит
Метод сжатия : С потерями
Размер потока : 188 Мбайт (7%)
Заголовок : MVO (Спб, 5 канал)
Язык : Russian
Default : Да
Forced : Нет

Аудио #2
Идентификатор : 3
Формат : AC-3
Формат/Информация : Audio Coding 3
Расширение режима : CM (complete main)
Параметр Endianness формата : Big
Идентификатор кодека : A_AC3
Продолжительность : 2 ч. 17 м.
Вид битрейта : Постоянный
Битрейт : 192 Кбит/сек
Каналы : 2 канала
Расположение каналов : Front: L R
Частота : 48,0 КГц
Битовая глубина : 16 бит
Метод сжатия : С потерями
Размер потока : 188 Мбайт (7%)
Заголовок : Original
Язык : French
Default : Нет
Forced : Нет

Текст
Идентификатор : 4
Формат : UTF-8
Идентификатор кодека : S_TEXT/UTF8
Идентификатор кодека/Информация : UTF-8 Plain Text
Заголовок : английский
Язык : English
Default : Нет
Forced : Нет



Скачать Пригоршня.чудес.Pocketful.of.Miracles.(Фрэнк.Капра).[1961.драма.комедия.BDRip.AVC].[MVO]+[Оригинал]+[Sub].torrent без регистрации
Золото ЗОЛОТАЯ РАЗДАЧА! СКАЧАННОЕ НЕ ЗАСЧИТЫВАЕТСЯ! Золото
Дата: Зарегистрирован   [ Тип: внутренний ] Как тут cкачать?
MAGNET ссылка
MAGNET ссылка


Скачать .torrent

14 KB

Статус: проверено DHT
Скачан: торрент - 122 раз, раздача полностью - 0 раз
Размер: 2,71 GB
Оценка:  - (Голосов: 0)
Поблагодарили: 2
Поделиться ссылкой на эту раздачу с друзьями:
В контактеFacebookОдноклассникиTwitterLivejournalМой МирLiveinternet
 

 
Показать сообщения:    


Вы не можете начинать темы
Вы не можете отвечать на сообщения
Вы не можете редактировать свои сообщения
Вы не можете удалять свои сообщения
Вы не можете голосовать в опросах
Вы не можете прикреплять файлы к сообщениям
Вы можете скачивать файлы