Loading...
Error

Скачать Пеппи в стране Така-Тука / Pippi Långstrump på de sju haven (Улле Хелльбум) [1970, детский, фэнтези, приключения, BDRip] [MVO] торрент без регистрации

 
Статистика раздачи
Размер:  1,45 GB   |    Скачан:  83 раза
Сидов:  1  [  0 KB/s  ]  
 
Автор Сообщение

Marsianka

[] 

Информация о фильме
Название: Пеппи в стране Така-Тука
Оригинальное название: Pippi Långstrump på de sju haven
Год выхода: 1970
Жанр: детский, фэнтези, приключения
Режиссер: Улле Хелльбум / Olle Hellbom
В ролях: Ингер Нилссон, Мария Перссон, Пер Сандберг, Беппе Уолгерс, Мартин Льюнг, Ярл Борссен, Альфред Шиске, Вольфганг Вёльц, Николаус Шиллинг, Стаффан Халлерстам

О фильме: Рядом с домом Анники и Томми на вилле «Курица» живет девочка Пеппи. Ее мать умерла, а папа бороздит океаны. Вместе с ней живут лошадь и обезьянка Нильсон. Благодаря непоседе Пеппи, друзья постоянно попадают в разные веселые ситуации. Вот и на этот раз они отправляются на остров Така-Тука, выручать отца Пеппи из пиратского плена...

Доп.информация: Исходник BDRemux (спасибо HDClub)



Страна: Швеция, Германия (ФРГ)
Студия: Iduna Film Produktiongesellschaft, Svensk Filmindustri (SF) AB
Продолжительность: 01:40:28
Перевод: Профессиональный (многоголосый, закадровый) - Омикрон

Файл
Формат: avi
Качество: BDRip (BDRemux)
Видео: XviD, 720x400, 24fps, 1865kbps
Аудио: AC3 Dolby Digital, 2ch, 48000Hz, 192kbps

General
Complete name : Peppi.V.Strane.Taka.Tuka.1970.P.BDRip.1400.MediaClub.CurHaJI.avi
Format : AVI
Format/Info : Audio Video Interleave
File size : 1.45 GiB
Duration : 1h 40mn
Overall bit rate : 2 067 Kbps
Movie name : Peppi.V.Strane.Taka.Tuka.1970.P.BDRip.1400.MediaClub.CurHaJI
Writing application : Lavf53.13.0
Writing library : VirtualDub build 35491/release

Video
ID : 0
Format : MPEG-4 Visual
Format profile : Advanced Simple@L5
Format settings, BVOP : 2
Format settings, QPel : No
Format settings, GMC : No warppoints
Format settings, Matrix : Custom
Codec ID : XVID
Codec ID/Hint : XviD
Duration : 1h 40mn
Bit rate : 1 865 Kbps
Width : 720 pixels
Height : 400 pixels
Display aspect ratio : 16:9
Frame rate : 24.000 fps
Color space : YUV
Chroma subsampling : 4:2:0
Bit depth : 8 bits
Scan type : Progressive
Compression mode : Lossy
Bits/(Pixel*Frame) : 0.270
Stream size : 1.31 GiB (90%)
Writing library : XviD 64

Audio
ID : 1
Format : AC-3
Format/Info : Audio Coding 3
Mode extension : CM (complete main)
Format settings, Endianness : Big
Codec ID : 2000
Duration : 1h 40mn
Bit rate mode : Constant
Bit rate : 192 Kbps
Channel(s) : 2 channels
Channel positions : Front: L R
Sampling rate : 48.0 KHz
Bit depth : 16 bits
Compression mode : Lossy
Stream size : 138 MiB (9%)
Alignment : Aligned on interleaves
Interleave, duration : 42 ms (1.00 video frame)
Interleave, preload duration : 512 ms
Релиз от:




Скачать Пеппи.в.стране.Така-Тука.Pippi.Långstrump.på.de.sju.haven.(Улле.Хелльбум).[1970.детский.фэнтези.приключения.BDRip].[MVO].torrent без регистрации
Золото ЗОЛОТАЯ РАЗДАЧА! СКАЧАННОЕ НЕ ЗАСЧИТЫВАЕТСЯ! Золото
Дата: Зарегистрирован   [ Тип: внутренний ] Как тут cкачать?
MAGNET ссылка
MAGNET ссылка


Скачать .torrent

15 KB

Статус: проверено DHT
Скачан: торрент - 83 раз, раздача полностью - 12 раз
Размер: 1,45 GB
Оценка:  - (Голосов: 0)
Поблагодарили: 0
Поделиться ссылкой на эту раздачу с друзьями:
В контактеFacebookОдноклассникиTwitterLivejournalМой МирLiveinternet
 

 
Показать сообщения:    


Вы не можете начинать темы
Вы не можете отвечать на сообщения
Вы не можете редактировать свои сообщения
Вы не можете удалять свои сообщения
Вы не можете голосовать в опросах
Вы не можете прикреплять файлы к сообщениям
Вы можете скачивать файлы