Loading...
Error

Скачать Пеппи в стране Така-Тука / Pippi Långstrump på de sju haven (Улле Хелльбум) [1970, приключения, семейный, BDRip-AVC] [MVO] торрент без регистрации

 
Статистика раздачи
Размер:  2,52 GB   |    Скачан:  89 раз
Сидов:  1  [  0 KB/s  ]  
 
Автор Сообщение

Marsianka

[] 

Информация о фильме
Название: Пеппи в стране Така-Тука
Оригинальное название: Pippi Långstrump på de sju haven
Год выхода: 1970
Жанр: приключения, семейный
Режиссер: Улле Хелльбум
В ролях: Ингер Нилссон, Мария Перссон, Пер Сандберг, Беппе Уолгерс, Мартин Льюнг, Ярл Борссен, Альфред Шиске, Вольфганг Вёльц, Николаус Шиллинг, Стаффан Халлерстам

О фильме:
Рядом с домом Анники и Томми на вилле «Курица» живет девочка Пеппи. Ее мать умерла, а папа бороздит океаны. Вместе с ней живут лошадь и обезьянка Нильсон. Благодаря непоседе Пеппи, друзья постоянно попадают в разные веселые ситуации. Вот и на этот раз они отправляются на остров Така-Тука, выручать отца Пеппи из пиратского плена...



Страна: Швеция, Германия (ФРГ) / Iduna Film Produktiongesellschaft, Svensk Filmindustri (SF) AB
Продолжительность: 01:40:28
Перевод: Профессиональный многоголосый («Омикрон»)

Файл
Качество: BDRip-AVC
Видео: MPEG-4 AVC, 3200 Кбит/с, 1024x574, 24.000 кадр/с
Звук: Русский, шведский (AC3, 2 ch, 192 Кбит/с)

Семпл
• За исходник спасибо HDClub
Format : Matroska
Format version : Version 4 / Version 2
File size : 2.52 GiB
Duration : 1h 40mn
Overall bit rate : 3 585 Kbps
Movie name : -=MediaClub - Odessit=-
Encoded date : UTC 2014-03-18 10:50:12
Writing application : mkvmerge v6.8.0 ('Theme for Great Cities') 64bit built on Mar 2 2014 21:34:26
Writing library : libebml v1.3.0 + libmatroska v1.4.1

Video
ID : 1
Format : AVC
Format/Info : Advanced Video Codec
Format profile : High@L4.1
Format settings, CABAC : Yes
Format settings, ReFrames : 10 frames
Codec ID : V_MPEG4/ISO/AVC
Duration : 1h 40mn
Bit rate : 3 200 Kbps
Width : 1 024 pixels
Height : 574 pixels
Display aspect ratio : 16:9
Frame rate : 24.000 fps
Color space : YUV
Chroma subsampling : 4:2:0
Bit depth : 8 bits
Scan type : Progressive
Bits/(Pixel*Frame) : 0.227
Stream size : 2.20 GiB (87%)
Writing library : x264 core 142 r2389+41 02cb608 tMod [8-bit@4:2:0 X86_64]
Encoding settings : cabac=1 / ref=10 / deblock=1:-3:-3 / analyse=0x3:0x113 / me=umh / subme=11 / psy=1 / fade_compensate=0.00 / psy_rd=1.00:0.05 / mixed_ref=1 / me_range=48 / chroma_me=1 / trellis=2 / 8x8dct=1 / cqm=0 / deadzone=21,11 / fast_pskip=0 / chroma_qp_offset=-3 / threads=6 / lookahead_threads=1 / sliced_threads=0 / nr=0 / decimate=0 / interlaced=0 / bluray_compat=0 / constrained_intra=0 / fgo=0 / bframes=10 / b_pyramid=2 / b_adapt=2 / b_bias=0 / direct=3 / weightb=1 / open_gop=0 / weightp=2 / keyint=240 / keyint_min=24 / scenecut=40 / intra_refresh=0 / rc=2pass / mbtree=0 / bitrate=3200 / ratetol=1.0 / qcomp=0.60 / qpmin=0:0:0 / qpmax=69:69:69 / qpstep=4 / cplxblur=20.0 / qblur=0.5 / ip_ratio=1.40 / pb_ratio=1.30 / aq=2:0.80 / aq-sensitivity=10.00 / aq-factor=1.00:1.00:1.00 / aq2=0 / aq3=0
Language : English

Audio #1
ID : 2
Format : AC-3
Format/Info : Audio Coding 3
Mode extension : CM (complete main)
Codec ID : A_AC3
Duration : 1h 40mn
Bit rate mode : Constant
Bit rate : 192 Kbps
Channel(s) : 2 channels
Channel positions : Front: L R
Sampling rate : 48.0 KHz
Bit depth : 16 bits
Compression mode : Lossy
Stream size : 138 MiB (5%)
Title : Многоголосый закадровый, студия «Омикрон»
Language : Russian

Audio #2
ID : 3
Format : AC-3
Format/Info : Audio Coding 3
Mode extension : CM (complete main)
Codec ID : A_AC3
Duration : 1h 40mn
Bit rate mode : Constant
Bit rate : 192 Kbps
Channel(s) : 2 channels
Channel positions : Front: L R
Sampling rate : 48.0 KHz
Bit depth : 16 bits
Compression mode : Lossy
Stream size : 138 MiB (5%)
Language : Swedish

Menu
00:00:00.000 : :Chapter 01
00:10:47.540 : :Chapter 02
00:14:38.957 : :Chapter 03
00:25:34.165 : :Chapter 04
00:31:25.082 : :Chapter 05
00:39:59.250 : :Chapter 06
00:50:39.207 : :Chapter 07
00:57:02.375 : :Chapter 08
01:04:24.916 : :Chapter 09
01:12:08.957 : :Chapter 10
01:23:30.290 : :Chapter 11
01:38:37.915 : :Chapter 12
x264 [info]: frame I:933 Avg QP:14.35 size:105734
x264 [info]: frame P:37131 Avg QP:17.70 size: 33191
x264 [info]: frame B:106610 Avg QP:19.61 size: 10127
x264 [info]: consecutive B-frames: 5.6% 2.2% 9.7% 23.1% 21.5% 36.2% 1.2% 0.2% 0.1% 0.0% 0.0%
x264 [info]: mb I I16..4: 9.1% 66.8% 24.1%
x264 [info]: mb P I16..4: 0.4% 8.4% 1.1% P16..4: 31.2% 37.2% 15.8% 0.0% 0.0% skip: 6.0%
x264 [info]: mb B I16..4: 0.0% 1.0% 0.1% B16..8: 32.8% 20.4% 4.1% direct: 4.6% skip:37.0% L0:38.0% L1:44.4% BI:17.7%
x264 [info]: 8x8 transform intra:82.9% inter:52.0%
x264 [info]: direct mvs spatial:98.9% temporal:1.1%
x264 [info]: coded y,uvDC,uvAC intra: 95.1% 87.7% 70.8% inter: 26.3% 18.7% 9.6%
x264 [info]: i16 v,h,dc,p: 29% 8% 15% 47%
x264 [info]: i8 v,h,dc,ddl,ddr,vr,hd,vl,hu: 9% 10% 8% 10% 13% 13% 12% 12% 13%
x264 [info]: i4 v,h,dc,ddl,ddr,vr,hd,vl,hu: 9% 7% 5% 10% 16% 15% 13% 12% 13%
x264 [info]: i8c dc,h,v,p: 42% 24% 18% 16%
x264 [info]: Weighted P-Frames: Y:6.6% UV:2.7%
x264 [info]: ref P L0: 48.2% 9.8% 16.3% 5.9% 5.4% 3.9% 3.8% 2.1% 2.1% 2.0% 0.6% 0.0%
x264 [info]: ref B L0: 84.1% 7.5% 2.8% 1.6% 1.2% 1.1% 0.9% 0.5% 0.3%
x264 [info]: ref B L1: 97.0% 3.0%
x264 [info]: kb/s:3199.30
Релиз от: |



Скачать Пеппи.в.стране.Така-Тука.Pippi.Långstrump.på.de.sju.haven.(Улле.Хелльбум).[1970.приключения.семейный.BDRip-AVC].[MVO].torrent без регистрации
Золото ЗОЛОТАЯ РАЗДАЧА! СКАЧАННОЕ НЕ ЗАСЧИТЫВАЕТСЯ! Золото
Дата: Зарегистрирован   [ Тип: внутренний ] Как тут cкачать?
MAGNET ссылка
MAGNET ссылка


Скачать .torrent

13 KB

Статус: проверено DHT
Скачан: торрент - 89 раз, раздача полностью - 1 раз
Размер: 2,52 GB
Оценка:  - (Голосов: 0)
Поблагодарили: 2
Поделиться ссылкой на эту раздачу с друзьями:
В контактеFacebookОдноклассникиTwitterLivejournalМой МирLiveinternet
 

 
Показать сообщения:    


Вы не можете начинать темы
Вы не можете отвечать на сообщения
Вы не можете редактировать свои сообщения
Вы не можете удалять свои сообщения
Вы не можете голосовать в опросах
Вы не можете прикреплять файлы к сообщениям
Вы можете скачивать файлы