Loading...
Error

Скачать Черная ночь / Nuit noire (Оливье Смолдерс) [2005, фантастика, триллер, драма, детектив, DVDRip-AVC] [AVO (Антон Алексеев)] торрент без регистрации

 
Статистика раздачи
Размер:  1,46 GB   |    Скачан:  94 раза
Сидов:  1  [  0 KB/s  ]  
 
Автор Сообщение

Marsianka

[] 

Информация о фильме
Название: Черная ночь
Оригинальное название: Nuit noire / Black Night
Год выхода: 2005
Жанр: фантастика, триллер, драма, детектив,
Режиссер: Оливье Смолдерс (Olivier Smolders)
В ролях: Фабрис Родригез, Ив-Мари Ньяуа, Филипп Корбисье, Ирис Де Бюсшер, Реймон Прадель, Мари Лекомте, Люк Дэвид, Жан-Филипп Альтенло, Елена Ибрагимова, Пьетро Джераньо ...

О фильме:
Это фильм о страшных кошмарах, мучающих молодого человека, кошмарах вырывавшихся из снов в реальный мир, и заслонивших собою все, даже солнце. Страхи из детства, трагическая смерть сестры, поглощают служащего музея на столько, что он не в состоянии отличить иллюзию от реальности. Но это лишь начало.



Страна: Бельгия
Студия: Canal+ (fr), Centre National de la Cinématographie (CNC), Cipango Productions Audiovisuelles, Euro HD, F.A.S.I.L.D., France 3 (FR 3), Kasander Film Company, Les Films du Scarabée, Parallèles Productions, Promimage, Région Ile-de-France, Rotterdam Film Fund, Tandem Films
Продолжительность: 01:28:56 (~ 89 мин.)
Перевод: Авторский (одноголосый) Антон Алексеев, ("Арт-Видео")
Субтитры: Нет

Файл
Качество: DVDRip-AVC
Видео: 1024x576, 2150 Kbps, 29.970 fps
Звук: AC-3, 192 Kbps, 2 channels, 48.0 KHz
General
Unique ID : 33988149988307731754570399374868590771 (0x1991E12C43D891E8C95FC962018DB0B3)
Complete name : F:Черная ночь.2005.DVDRIP_AVC.[-=DoMiNo=-].mkv
Format : Matroska
Format version : Version 4 / Version 2
File size : 1.46 GiB
Duration : 1h 28mn
Overall bit rate : 2 345 Kbps
Movie name : Черная ночь
Writing application : XviD4PSP 7.0.143
Writing library : Lavf56.25.101
ORIGINAL_TITLE : Nuit noire
DATE : 2005
GENRE : фантастика, триллер, драма, детектив
ENCODING_INFO : DVD > MKV / MPEG2 > X264 VBR-2P 2150kbps Custom / AC3 > COPY
DEION : Это фильм о страшных кошмарах, мучающих молодого человека, кошмарах вырывавшихся из снов в реальный мир, и заслонивших собою все, даже солнце. Страхи из детства, трагическая смерть сестры, поглощают служащего музея на столько, что он не в состоянии отличить иллюзию от реальности. Но это лишь начало.
SYNOPSIS : Это фильм о страшных кошмарах, мучающих молодого человека, кошмарах вырывавшихся из снов в реальный мир, и заслонивших собою все, даже солнце. Страхи из детства, трагическая смерть сестры, поглощают служащего музея на столько, что он не в состоянии отличить иллюзию от реальности. Но это лишь начало.
ACTORS : Фабрис Родригез, Ив-Мари Ньяуа, Филипп Корбисье, Ирис Де Бюсшер, Реймон Прадель, Мари Лекомте, Люк Дэвид, Жан-Филипп Альтенло, Елена Ибрагимова, Пьетро Джераньо, показать всех
DIRECTOR : Оливье Смолдерс
PRODUCER : Мишель Де Кемпенеер, Клод Хайм, Оливье Смолдерс
WRITER : Оливье Смолдерс
COUNTRY : Бельгия
RATING : 7.082
IMDB_RATING : 6.70
Language : und
FILENAME : cover.png
Attachements : cover.png

Video
ID : 1
Format : AVC
Format/Info : Advanced Video Codec
Format profile : High@L4.1
Format settings, CABAC : Yes
Format settings, ReFrames : 12 frames
Codec ID : V_MPEG4/ISO/AVC
Duration : 1h 28mn
Bit rate : 2 150 Kbps
Width : 1 024 pixels
Height : 576 pixels
Display aspect ratio : 16:9
Frame rate mode : Constant
Frame rate : 29.970 fps
Color space : YUV
Chroma subsampling : 4:2:0
Bit depth : 8 bits
Scan type : Progressive
Bits/(Pixel*Frame) : 0.122
Stream size : 1.31 GiB (90%)
Writing library : x264 core 146 r2538M 121396c
Encoding settings : cabac=1 / ref=12 / deblock=1:-3:-3 / analyse=0x3:0x133 / me=umh / subme=11 / psy=1 / psy_rd=1,00:0,50 / mixed_ref=1 / me_range=32 / chroma_me=1 / trellis=2 / 8x8dct=1 / cqm=0 / deadzone=21,11 / fast_pskip=0 / chroma_qp_offset=-4 / threads=12 / lookahead_threads=3 / sliced_threads=0 / nr=0 / decimate=1 / interlaced=0 / bluray_compat=0 / constrained_intra=0 / bframes=11 / b_pyramid=2 / b_adapt=2 / b_bias=0 / direct=3 / weightb=1 / open_gop=0 / weightp=2 / keyint=290 / keyint_min=29 / scenecut=40 / intra_refresh=0 / rc=2pass / mbtree=0 / bitrate=2150 / ratetol=1,0 / qcomp=0,60 / qpmin=3 / qpmax=69 / qpstep=4 / cplxblur=20,0 / qblur=0,5 / ip_ratio=1,40 / pb_ratio=1,30 / aq=3:1,60
Default : Yes
Forced : No
Color range : Limited
Color primaries : BT.601 NTSC
Transfer characteristics : BT.601
Matrix coefficients : BT.601

Audio
ID : 2
Format : AC-3
Format/Info : Audio Coding 3
Mode extension : CM (complete main)
Format settings, Endianness : Big
Codec ID : A_AC3
Duration : 1h 28mn
Bit rate mode : Constant
Bit rate : 192 Kbps
Channel(s) : 2 channels
Channel positions : Front: L R
Sampling rate : 48.0 KHz
Bit depth : 32 bits
Compression mode : Lossy
Stream size : 122 MiB (8%)
Language : Russian
Default : Yes
Forced : No

Menu
00:00:00.000 : :Chapter 1
00:07:15.409 : :Chapter 2
00:13:56.892 : :Chapter 3
00:19:37.203 : :Chapter 4
00:26:29.749 : :Chapter 5
00:32:41.162 : :Chapter 6
00:43:25.824 : :Chapter 7
00:58:29.570 : :Chapter 8
01:09:22.305 : :Chapter 9
01:14:17.748 : :Chapter 10
01:20:52.292 : :Chapter 11
01:26:04.558 : :Chapter 12



Скачать Черная.ночь.Nuit.noire.(Оливье.Смолдерс).[2005.фантастика.триллер.драма.детектив.DVDRip-AVC].[AVO.(Антон.Алексеев)].torrent без регистрации
Золото ЗОЛОТАЯ РАЗДАЧА! СКАЧАННОЕ НЕ ЗАСЧИТЫВАЕТСЯ! Золото
Дата: Зарегистрирован   [ Тип: внутренний ] Как тут cкачать?
MAGNET ссылка
MAGNET ссылка


Скачать .torrent

15 KB

Статус: проверено DHT
Скачан: торрент - 94 раз, раздача полностью - 23 раз
Размер: 1,46 GB
Оценка:  - (Голосов: 0)
Поблагодарили: 1
Поделиться ссылкой на эту раздачу с друзьями:
В контактеFacebookОдноклассникиTwitterLivejournalМой МирLiveinternet
 

 
Показать сообщения:    


Вы не можете начинать темы
Вы не можете отвечать на сообщения
Вы не можете редактировать свои сообщения
Вы не можете удалять свои сообщения
Вы не можете голосовать в опросах
Вы не можете прикреплять файлы к сообщениям
Вы можете скачивать файлы