Loading...
Error

Скачать Тиран / Tyrant (сезон 02) (Майкл Леманн и др.) [2015, боевик, триллер, драма, HDTVRip] [MVO (OMSKBIRD records)]+[Eng] торрент без регистрации

 
Статистика раздачи
Размер:  8,13 GB   |    Скачан:  1926 раз
Сидов:  1  [  0 KB/s  ]  
 
Автор Сообщение

МихаНЕзатор

[] 

Информация о фильме
Название: Тиран
Оригинальное название: Tyrant
Год выхода: 2015
Жанр: Боевик, триллер, драма
Режиссер: Майкл Леманн, Гвинет Хердер-Пэйтон, Дэвид Петрарка

В ролях: Адам Рэйнер, Софи Тэйлор Али, Моран Атиас, Рой Авигдори, Мохаммад Бакри, Ашраф Бархом, Амир Бутрус, Сибулла Дин, Мехди Дехби

О фильме: Сюжет Тирана разворачивается в самой политически неустойчивой и взрывоопасной точке нашего мира — на Ближнем Востоке, где, как известно, сосредоточено множество военных конфликтов (от гражданской войны в Сирии до бесконечного арабо-израильского противостояния). Главный герой Бассам «Барри» Аль Фаед, сын ближневосточного диктатора, разумеется, вымышленного арабского государства Балади (хотя особенно внимательные зрители узнают в кадре ландшафты Израиля). Он жил своей собственной жизнью в Лос-Анджелесе около 20 лет, женился на американке. Но судьба заставила его вернуться на родную землю.



Страна: США

Продолжительность: ~ 00:55:00 серия
Перевод: Профессиональный (многоголосый закадровый) | OMSKBIRD records

Файл
Кодек: XviD
Качество: HDTVRip
Видео: 720x400 (16:9), 23.976 fps, ~ 1678 kbps
Звук:
Аудио rus: MP3, 48 KHz, 2 ch, 192kbps | OMSKBIRD records
Аудио eng: MP3, 48 KHz, 2 ch, 192kbps | original
Субтитры: отсутствуют

Релиз от: skyns61

АНОНСЫ ПОПУЛЯРНЫХ РАЗДАЧ


Торрент обновлён, добавлена 12-я серия!

01. Печать Каина
02. Перст судьбы
03. Вера
04. Дом построенный на песке
05. Змея во дворце
06. Другой брат
07. Воля божья
08. Отцы и дети
09. Он - инсайдер, она - аутсайдер
10. Самобичевание
11. Буря в пустыне
12. Мир в Абуддине

Релиз подготовил: Skyns61
[Релиз-группа:
Роли озвучивали: Павел Ярощик, Ольга Федорова, Алексей Гнеушев
Перевод: Екатерина Кузнецова
Звукорежиссер: Павел Квентов
Сборка, работа со звуком: Skyns61

Общее
Полное имя : G:FilmsTyrant.S02.HDTVRip.XviD.OmskBirdTyrant.S02E01.HDTVRip.XviD.OmskBird.avi
Формат : AVI
Формат/Информация : Audio Video Interleave
Размер файла : 694 Мбайт
Продолжительность : 46 м.
Общий поток : 2083 Кбит/сек
Программа кодирования : XviD4PSP 6.0 / 53.6.0

Видео
Идентификатор : 0
Формат : MPEG-4 Visual
Профиль формата : Simple@L3
Параметр BVOP формата : Нет
Параметр QPel формата : Нет
Параметр GMC формата : Без точки перехода
Параметр матрицы формата : Default (H.263)
Идентификатор кодека : XVID
Идентификатор кодека/Подсказка : XviD
Продолжительность : 46 м.
Битрейт : 1678 Кбит/сек
Ширина : 720 пикселей
Высота : 400 пикселей
Соотношение сторон : 16:9
Частота кадров : 23,976 кадра/сек
Цветовое пространство : YUV
Субдискретизация насыщенности : 4:2:0
Битовая глубина : 8 бит
Тип развёртки : Прогрессивная
Метод сжатия : С потерями
Бит/(Пиксели*Кадры) : 0.243
Размер потока : 559 Мбайт (81%)
Библиотека кодирования : XviD 64

Аудио #1
Идентификатор : 1
Формат : MPEG Audio
Версия формата : Version 1
Профиль формата : Layer 3
Режим : Joint stereo
Расширение режима : MS Stereo
Идентификатор кодека : 55
Идентификатор кодека/Подсказка : MP3
Продолжительность : 46 м.
Вид битрейта : Постоянный
Битрейт : 192 Кбит/сек
Каналы : 2 канала
Частота : 48,0 КГц
Метод сжатия : С потерями
Размер потока : 64,0 Мбайт (9%)
Выравнивание : Соединение по промежуткам
Продолжительность промежутка : 24 мс. (0,58 видеокадр)
Заголовок : OmskBird 5.1
Библиотека кодирования : LAME3.98.2ЄЄЄЄЄЄЄЄЄЄ

Аудио #2
Идентификатор : 2
Формат : MPEG Audio
Версия формата : Version 1
Профиль формата : Layer 3
Режим : Joint stereo
Расширение режима : MS Stereo
Идентификатор кодека : 55
Идентификатор кодека/Подсказка : MP3
Продолжительность : 46 м.
Вид битрейта : Постоянный
Битрейт : 192 Кбит/сек
Каналы : 2 канала
Частота : 48,0 КГц
Метод сжатия : С потерями
Размер потока : 64,0 Мбайт (9%)
Выравнивание : Соединение по промежуткам
Продолжительность промежутка : 24 мс. (0,58 видеокадр)
Заголовок : original 5.1
Библиотека кодирования : LAME3.98.2

Когда раздача ведётся путём добавления новых серий, при каждом добавлении создётся новый торрент. Чтобы начать докачку новой серии, пользователям необходимо сделать следующее:
(1) остановить скачивание,
(2) удалить старый торрент у себя из клиента (старые серии удалять не надо),
(3) скачать новый торрент и запустить его у себя в клиенте вместо старого, при этом указать клиенту путь в старую папку, куда и должно происходить скачивание новых серий.
Ваш клиент при этом должен произвести хеширование (проверку) старой папки (если не производит сам - помогите ему сделать это), и будет докачивать только те серии, которых у вас ещё нет. Старые серии при этом не удаляются, а продолжают раздаваться!
Eсли вы уже удалили старые серии, то предотвратить повторную закачку старых серий можно, отжав галочку в соответсвующих местах при запуске нового торрента. По возможности, желательно не удалять старые серии как можно дольше, чтобы релизёр не столько продолжал раздавать старые серии, а смог сконцентрироваться на новых.



Скачать Тиран.Tyrant.(сезон.02).(Майкл.Леманн.и.др.).[2015.боевик.триллер.драма.HDTVRip].[MVO.(OMSKBIRD.records)]+[Eng].torrent без регистрации
Золото ЗОЛОТАЯ РАЗДАЧА! СКАЧАННОЕ НЕ ЗАСЧИТЫВАЕТСЯ! Золото
Дата: Зарегистрирован   [ Тип: внутренний ] Как тут cкачать?
MAGNET ссылка
MAGNET ссылка


Скачать .torrent

22 KB

Статус: проверено DHT
Скачан: торрент - 1926 раз, раздача полностью - 6 раз
Размер: 8,13 GB
Оценка:  - (Голосов: 0)
Поблагодарили: 4
Поделиться ссылкой на эту раздачу с друзьями:
В контактеFacebookОдноклассникиTwitterLivejournalМой МирLiveinternet
 

 
Показать сообщения:    


Вы не можете начинать темы
Вы не можете отвечать на сообщения
Вы не можете редактировать свои сообщения
Вы не можете удалять свои сообщения
Вы не можете голосовать в опросах
Вы не можете прикреплять файлы к сообщениям
Вы можете скачивать файлы