Loading...
Error

Скачать Джонатан Стрендж и мистер Норрелл / Jonathan Strange and Mr Norrell(сезон 01) (Тоби Хэйнс) [2015, фэнтези, костюмированный, BDRip] [720p] [MVO (AlexFilm)]+[Eng] торрент без регистрации

 
Статистика раздачи
Размер:  9,44 GB   |    Скачан:  117 раз
Сидов:  1  [  0 KB/s  ]  
 
Автор Сообщение

МихаНЕзатор

[] 

Информация о сериале
Название: Джонатан Стрендж и мистер Норрелл
Оригинальное название: Jonathan Strange & Mr Norrell
Год выхода: 2015
Жанр: фэнтези, история
Автор идеи: Питер Харнесс /Peter Harness/
Режиссер: Тоби Хэйнс /Toby Haynes/

В ролях: Берти Карвел /Bertie Carvel/, Эдди Марсан /Eddie Marsan/, Марк Уоррен /Marc Warren/, Шарлотта Райли /Charlotte Riley/, Элис Энглерт /Alice Englert/, Сэмюэл Уэст /Samuel West/, Энцо Чиленти /Enzo Cilenti/, Пол Кэй /Paul Kaye/, Эдвард Хогг /Edward Hogg/, Эрион Бакаре /Ariyon Bakare/ и др.

О сериале:
История начинается в альтернативной Англии XIX века в период Наполеоновских войн. Английская магия, когда-то утраченная возвращается благодаря консервативному Гильберту Норреллу и дерзкому новичку Джонатану Стренджу. Мистер Норрелл воскрешает невесту высокопоставленного правительственного чиновника, заключив для этого сделку с потусторонними силами, тем самым запустив череду непредсказуемых и трагических событий.

Релиз от:

Страна: Великобритания
Студии: Cuba Pictures / Feel Films / BBC America и др.
Продолжительность: 6 x ~ 01:00:00
Перевод: Профессиональный (многоголосый, закадровый) - AlexFilm

Перевод: Константин Кривоногов
Монтаж и сведение звука: Михаил Шорыгин
Роли озвучивали:
Евгения Тихонова
Роман Сопко
Михаил Суслов
Владимир Курдов
Константин Погодаев

Файл
Кодек: H.264
Качество: BDRip 720p
Видео: 1280x720 at 25.000 fps, x264@L4.1, crf, 6500 kbps avg
Аудио#1: Russian: 48 kHz, AC3, 2/0 (L,R) ch, ~192.00 kbps avg |Многоголосый закадровый, AlexFilm|
Аудио#2: English: 48 kHz, AC3, 2/0 (L,R) ch, ~192.00 kbps avg |Оригинал|
Субтитры: none

АНОНСЫ ПОПУЛЯРНЫХ РАЗДАЧ


Торрент обновлён, добавлена 7-я серия!

01. Chapter One: The Friends of English Magic / Друзья английской магии
02. Chapter Two: How Is Lady Pole? / Как поживает леди Поул?
03. Chapter Three: The Education of a Magician / Обучение волшебника
04. Chapter Four: All the Mirrors of the World / Все зеркала на свете
05. Chapter Five: Arabella / Арабелла
06. Chapter Six: The Black Tower / Чёрная башня
07. Chapter Seven: Jonathan Strange & Mr Norrell / Джонатан Стрендж и мистер Норрелл
General
Complete name : Jonathan.Strange.and.Mr.Norrell.s01e01.HDTVRip.720p.Rus.Eng.AlexFilm.mkv
Format : Matroska
Format version : Version 4 / Version 2
File size : 1.84 GiB
Duration : 59mn 0s
Overall bit rate : 4 462 Kbps
Movie name : Jonathan Strange and Mr.Norrell 1x01 Job @ AlexFilm
Encoded date : UTC 2015-06-01 22:07:45
Writing application : mkvmerge v7.1.0 ('Good Love') 64bit built on Jul 27 2014 13:06:55
Writing library : libebml v1.3.0 + libmatroska v1.4.1

Video
ID : 1
Format : AVC
Format/Info : Advanced Video Codec
Format profile : High@L4.1
Format settings, CABAC : Yes
Format settings, ReFrames : 9 frames
Codec ID : V_MPEG4/ISO/AVC
Duration : 59mn 0s
Bit rate : 3 989 Kbps
Width : 1 280 pixels
Height : 720 pixels
Display aspect ratio : 16:9
Frame rate mode : Constant
Frame rate : 25.000 fps
Color space : YUV
Chroma subsampling : 4:2:0
Bit depth : 8 bits
Scan type : Progressive
Bits/(Pixel*Frame) : 0.173
Stream size : 1.64 GiB (89%)
Writing library : x264 core 146 r2538 121396c
Encoding settings : cabac=1 / ref=9 / deblock=1:-1:-1 / analyse=0x3:0x133 / me=umh / subme=10 / psy=1 / psy_rd=1.00:0.15 / mixed_ref=1 / me_range=32 / chroma_me=1 / trellis=2 / 8x8dct=1 / cqm=0 / deadzone=21,11 / fast_pskip=0 / chroma_qp_offset=-3 / threads=12 / lookahead_threads=2 / sliced_threads=0 / nr=0 / decimate=1 / interlaced=0 / bluray_compat=0 / constrained_intra=0 / bframes=8 / b_pyramid=2 / b_adapt=2 / b_bias=0 / direct=3 / weightb=1 / open_gop=0 / weightp=2 / keyint=250 / keyint_min=25 / scenecut=40 / intra_refresh=0 / rc_lookahead=60 / rc=crf / mbtree=1 / crf=15.0 / qcomp=0.60 / qpmin=0 / qpmax=69 / qpstep=4 / ip_ratio=1.40 / aq=1:1.00
Language : English
Default : Yes
Forced : No

Audio #1
ID : 2
Format : AC-3
Format/Info : Audio Coding 3
Mode extension : CM (complete main)
Format settings, Endianness : Big
Codec ID : A_AC3
Duration : 59mn 0s
Bit rate mode : Constant
Bit rate : 192 Kbps
Channel(s) : 2 channels
Channel positions : Front: L R
Sampling rate : 48.0 KHz
Compression mode : Lossy
Stream size : 81.0 MiB (4%)
Title : DD2.0 AlexFilm
Language : Russian
Default : Yes
Forced : No

Audio #2
ID : 3
Format : AC-3
Format/Info : Audio Coding 3
Mode extension : CM (complete main)
Format settings, Endianness : Big
Codec ID : A_AC3
Duration : 59mn 0s
Bit rate mode : Constant
Bit rate : 192 Kbps
Channel(s) : 2 channels
Channel positions : Front: L R
Sampling rate : 48.0 KHz
Compression mode : Lossy
Stream size : 81.0 MiB (4%)
Title : DD2.0 Original
Language : English
Default : No
Forced : No
Когда раздача ведётся путём добавления новых серий, при каждом добавлении создётся новый торрент. Чтобы начать докачку новой серии, пользователям необходимо сделать следующее:
(1) остановить скачивание,
(2) удалить старый торрент у себя из клиента (старые серии удалять не надо),
(3) скачать новый торрент и запустить его у себя в клиенте вместо старого, при этом указать клиенту путь в старую папку, куда и должно происходить скачивание новых серий.
Ваш клиент при этом должен произвести хеширование (проверку) старой папки (если не производит сам - помогите ему сделать это), и будет докачивать только те серии, которых у вас ещё нет. Старые серии при этом не удаляются, а продолжают раздаваться!
Eсли вы уже удалили старые серии, то предотвратить повторную закачку старых серий можно, отжав галочку в соответсвующих местах при запуске нового торрента. По возможности, желательно не удалять старые серии как можно дольше, чтобы релизёр не столько продолжал раздавать старые серии, а смог сконцентрироваться на новых.



Скачать Джонатан.Стрендж.и.мистер.Норрелл.Jonathan.Strange.and.Mr.Norrell(сезон.01).(Тоби.Хэйнс).[2015.фэнтези.костюмированный.BDRip].[720p].[MVO.(AlexFilm)]+[Eng].torrent без регистрации
Золото ЗОЛОТАЯ РАЗДАЧА! СКАЧАННОЕ НЕ ЗАСЧИТЫВАЕТСЯ! Золото
Дата: Зарегистрирован   [ Тип: внутренний ] Как тут cкачать?
MAGNET ссылка
MAGNET ссылка


Скачать .torrent

44 KB

Статус: проверено DHT
Скачан: торрент - 117 раз, раздача полностью - 0 раз
Размер: 9,44 GB
Оценка:  - (Голосов: 0)
Поблагодарили: 0
Поделиться ссылкой на эту раздачу с друзьями:
В контактеFacebookОдноклассникиTwitterLivejournalМой МирLiveinternet
 

 
Показать сообщения:    


Вы не можете начинать темы
Вы не можете отвечать на сообщения
Вы не можете редактировать свои сообщения
Вы не можете удалять свои сообщения
Вы не можете голосовать в опросах
Вы не можете прикреплять файлы к сообщениям
Вы можете скачивать файлы