Loading...
Error

Скачать Неистребимый шпион / Spy Hard (Рик Фридберг) [1996, комедия, боевик, WEB-DLRip] [MVO]+[AVO] торрент без регистрации

 
Статистика раздачи
Размер:  1,46 GB   |    Скачан:  106 раз
Сидов:  1  [  0 KB/s  ]  
 
Автор Сообщение

Marsianka

[] 

Информация о фильме
Название: Неистребимый шпион
Оригинальное название: Spy Hard
Год выхода: 1996
Жанр: комедия, боевик
Режиссер: Рик Фридберг
В ролях: Лесли Нильсен, Николетт Шеридан, Чарльз Дернинг, Марша Гей Харден, Барри Боствик, Энди Гриффит

О фильме:

Секретный агент ВД — 40 должен расстроить коварный план суперврага генерала Ранкора — сумасшедшего психопата, потерявшего руки во время взрыва — но он вооружен и очень опасен!
Миссия суперагента — спасти мир от разрушения, вызволить дочь своей погибшей много лет назад подруги, и, конечно же, внедриться в ряды террористов вместе со своей сексуальной напарницей.



Страна: США
Студия: Hollywоod Pictures
Продолжительность: 01:17:37
Перевод: Профессиональный (многоголосый закадровый) СТС, Авторский (одноголосый закадровый) Павел Санаев

Файл
Кодек: XviD
Качество: WEB-DLRip
Видео: 720x384, 25.000 fps, 2038 kbps
Аудио #1: Русский ( AC3, 2ch, 448 Кбит/с, 48.0 KHz) Профессиональный (многоголосый, закадровый) СТС
Аудио #2: Русский ( AC3, 2ch, 192 Кбит/с, 48.0 KHz) Авторский (одноголосый закадровый) Павел Санаев
Общее
Полное имя : Spy.Hard.1996.WEB-DLRip.avi
Формат : AVI
Формат/Информация : Audio Video Interleave
Размер файла : 1,46 Гбайт
Продолжительность : 1 ч. 17 м.
Общий поток : 2692 Кбит/сек
Программа кодирования : VirtualDubMod 1.5.10.2 (build 2542/release)
Библиотека кодирования : VirtualDubMod build 2542/release

Видео
Идентификатор : 0
Формат : MPEG-4 Visual
Профиль формата : Advanced Simple@L5
Параметр BVOP формата : 1
Параметр QPel формата : Нет
Параметр GMC формата : Без точки перехода
Параметр матрицы формата : Выборочная
Идентификатор кодека : XVID
Идентификатор кодека/Подсказка : XviD
Продолжительность : 1 ч. 17 м.
Битрейт : 2038 Кбит/сек
Ширина : 720 пикс.
Высота : 384 пикс.
Соотношение сторон : 1,875
Частота кадров : 25,000 кадр/сек
Цветовое пространство : YUV
Подвыборка цветности : 4:2:0
Битовая глубина : 8 бит
Тип развёртки : Прогрессивная
Метод сжатия : С потерями
Бит/(Пиксели*Кадры) : 0.295
Размер потока : 1,10 Гбайт (76%)
Библиотека кодирования : XviD 73

Аудио #1
Идентификатор : 1
Формат : AC-3
Формат/Информация : Audio Coding 3
Расширение режима : CM (complete main)
Идентификатор кодека : 2000
Продолжительность : 1 ч. 17 м.
Вид битрейта : Постоянный
Битрейт : 448 Кбит/сек
Канал(ы) : 2 канала(ов)
Расположение каналов : Front: L R
Частота : 48,0 КГц
Битовая глубина : 16 бит
Метод сжатия : С потерями
Размер потока : 249 Мбайт (17%)
Выравнивание : Разделение по промежуткам
Продолжительность промежутка : 40 мс. (1,00 видеокадр)
Время предзагрузки промежутка : 500 ms

Аудио #2
Идентификатор : 2
Формат : AC-3
Формат/Информация : Audio Coding 3
Расширение режима : CM (complete main)
Идентификатор кодека : 2000
Продолжительность : 1 ч. 17 м.
Вид битрейта : Постоянный
Битрейт : 192 Кбит/сек
Канал(ы) : 2 канала(ов)
Расположение каналов : Front: L R
Частота : 48,0 КГц
Битовая глубина : 16 бит
Метод сжатия : С потерями
Размер потока : 107 Мбайт (7%)
Выравнивание : Разделение по промежуткам
Продолжительность промежутка : 40 мс. (1,00 видеокадр)
Время предзагрузки промежутка : 500 ms
Релиз от: Leon-masl



Скачать Неистребимый.шпион.Spy.Hard.(Рик.Фридберг).[1996.комедия.боевик.WEB-DLRip].[MVO]+[AVO].torrent без регистрации
Золото ЗОЛОТАЯ РАЗДАЧА! СКАЧАННОЕ НЕ ЗАСЧИТЫВАЕТСЯ! Золото
Дата: Зарегистрирован   [ Тип: внутренний ] Как тут cкачать?
MAGNET ссылка
MAGNET ссылка


Скачать .torrent

15 KB

Статус: проверено DHT
Скачан: торрент - 106 раз, раздача полностью - 50 раз
Размер: 1,46 GB
Оценка:  - (Голосов: 0)
Поблагодарили: 0
Поделиться ссылкой на эту раздачу с друзьями:
В контактеFacebookОдноклассникиTwitterLivejournalМой МирLiveinternet
 

 
Показать сообщения:    


Вы не можете начинать темы
Вы не можете отвечать на сообщения
Вы не можете редактировать свои сообщения
Вы не можете удалять свои сообщения
Вы не можете голосовать в опросах
Вы не можете прикреплять файлы к сообщениям
Вы можете скачивать файлы