Loading...
Error

Скачать Фостеры / The Fosters (03x01-09) (Норман Бакли) [2015, драма, HDTVRip] [720p] [Eng] [Sub Rus, Eng] торрент без регистрации

 
Статистика раздачи
Размер:  8,61 GB   |    Скачан:  245 раз
Сидов:  1  [  0 KB/s  ]  
 
Автор Сообщение

МихаНЕзатор

[] 

Информация о сериале
Название: Фостеры
Оригинальное название: The Fosters
Год выхода: 2015
Жанр: драма
Режиссеры: Норман Бакли, Элоди Кин, Марта Митчелл

В ролях: Тери Поло, Шерри Сом, Дэвид Ламберт, Хейден Байерли, Майя Митчелл, Дэнни Нуччи, Сьерра Рамирес, Джейк Т. Остин

О фильме: Многонациональная семья, в которой родных и приемных детей воспитывают две мамы.
«Фостеры» (англ. The Fosters) — американский драматический телесериал, созданный Питером Пейджем и Брэдом Уэдевидом, премьера которого состоялась 3 июня 2013 года на канале ABC Family. В центре сюжета находится межрасовая пара лесбиянок, воспитывающих общих детей. 11 октября 2013 года ABC Family продлил сериал на второй сезон. 13 января 2015 года канал продлил шоу на третий сезон.



Страна: США
Студия: Blazing Elm Entertainment, Nitelite Entertainment, Nuyorican Productions, Prodco
Продолжительность: ~00:43:00 серия
Перевод: Субтитры

Файл
Кодек: H.264 / AC3
Качество: HDTVRip 720p
Видео: AVC, 1280x718 (16:9), 23.976 fps, 2 554 Kbps (0.116 bit/pixel)
Звук: AC-3, 48.0 KHz, 6 ch, 384 Kbps, CBR (English)
Субтитры: Русские, английские

АНОНСЫ ПОПУЛЯРНЫХ РАЗДАЧ


Торрент обновлён, добавлена 9-я серия!
General
Unique ID : 173838245349387119391264223112366053205 (0x82C8073969E18D47807258E26322D755)
Complete name : The.Fosters.2013.S03E01.720p.HDTV.x264.mkv
Format : Matroska
Format version : Version 4 / Version 2
File size : 889 MiB
Duration : 41mn 27s
Overall bit rate : 2 998 Kbps
Encoded date : UTC 2015-06-24 18:03:21
Writing application : mkvmerge v8.0.0 ('Til The Day That I Die') 32bit
Writing library : libebml v1.3.1 + libmatroska v1.4.2

Video
ID : 1
Format : AVC
Format/Info : Advanced Video Codec
Format profile : High@L4.1
Format settings, CABAC : Yes
Format settings, ReFrames : 5 frames
Codec ID : V_MPEG4/ISO/AVC
Duration : 41mn 27s
Bit rate : 2 554 Kbps
Width : 1 280 pixels
Height : 718 pixels
Display aspect ratio : 16:9
Frame rate mode : Constant
Frame rate : 23.976 fps
Color space : YUV
Chroma subsampling : 4:2:0
Bit depth : 8 bits
Scan type : Progressive
Bits/(Pixel*Frame) : 0.116
Stream size : 757 MiB (85%)
Writing library : x264 core 146 r2538 121396c
Encoding settings : cabac=1 / ref=5 / deblock=1:-2:-2 / analyse=0x3:0x113 / me=umh / subme=8 / psy=1 / psy_rd=1.05:0.00 / mixed_ref=1 / me_range=16 / chroma_me=1 / trellis=1 / 8x8dct=1 / cqm=0 / deadzone=21,11 / fast_pskip=1 / chroma_qp_offset=-2 / threads=24 / lookahead_threads=4 / sliced_threads=0 / nr=0 / decimate=1 / interlaced=0 / bluray_compat=0 / constrained_intra=0 / bframes=3 / b_pyramid=2 / b_adapt=2 / b_bias=0 / direct=3 / weightb=1 / open_gop=0 / weightp=2 / keyint=250 / keyint_min=23 / scenecut=40 / intra_refresh=0 / rc_lookahead=50 / rc=crf / mbtree=1 / crf=18.0 / qcomp=0.60 / qpmin=0 / qpmax=69 / qpstep=4 / ip_ratio=1.40 / aq=1:0.70
Language : English
Default : Yes
Forced : No

Audio
ID : 2
Format : AC-3
Format/Info : Audio Coding 3
Mode extension : CM (complete main)
Format settings, Endianness : Big
Codec ID : A_AC3
Duration : 41mn 27s
Bit rate mode : Constant
Bit rate : 384 Kbps
Channel(s) : 6 channels
Channel positions : Front: L C R, Side: L R, LFE
Sampling rate : 48.0 KHz
Bit depth : 16 bits
Compression mode : Lossy
Stream size : 114 MiB (13%)
Language : English
Default : Yes
Forced : No

Text #1
ID : 3
Format : UTF-8
Codec ID : S_TEXT/UTF8
Codec ID/Info : UTF-8 Plain Text
Title : English
Language : English
Default : No
Forced : No

Text #2
ID : 4
Format : UTF-8
Codec ID : S_TEXT/UTF8
Codec ID/Info : UTF-8 Plain Text
Title : Russian
Language : Russian
Default : Yes
Forced : No



Скачать Фостеры.The.Fosters.(03x01-09).(Норман.Бакли).[2015.драма.HDTVRip].[720p].[Eng].[Sub.Rus.Eng].torrent без регистрации
Золото ЗОЛОТАЯ РАЗДАЧА! СКАЧАННОЕ НЕ ЗАСЧИТЫВАЕТСЯ! Золото
Дата: Зарегистрирован   [ Тип: внутренний ] Как тут cкачать?
MAGNET ссылка
MAGNET ссылка


Скачать .torrent

23 KB

Статус: проверено DHT
Скачан: торрент - 245 раз, раздача полностью - 0 раз
Размер: 8,61 GB
Оценка:  - (Голосов: 0)
Поблагодарили: 0
Поделиться ссылкой на эту раздачу с друзьями:
В контактеFacebookОдноклассникиTwitterLivejournalМой МирLiveinternet
 

 
Показать сообщения:    


Вы не можете начинать темы
Вы не можете отвечать на сообщения
Вы не можете редактировать свои сообщения
Вы не можете удалять свои сообщения
Вы не можете голосовать в опросах
Вы не можете прикреплять файлы к сообщениям
Вы можете скачивать файлы