Loading...
Error

Скачать Скользящие / Параллельные миры / Sliders (сезон 01) (Трейси Торме и др.) [1995, фантастика, мистика, приключения, ужасы, триллер, DVDRemux] 2x[MVO (СТС, SyFy)]+[AVO (C.Визгунов)]+[Eng]+[Subs] торрент без регистрации

 
Статистика раздачи
Размер:  20,19 GB   |    Скачан:  116 раз
Сидов:  1  [  0 KB/s  ]  
 
Автор Сообщение

МихаНЕзатор

[] 

Информация о фильме
Название: Скользящие
Оригинальное название: Sliders
Год выхода: 1995
Жанр: фантастика, мистика, приключения, ужасы, триллер
Режиссер: Трейси Торме, Роберк Вайс, Марио Аццопарди, Ричард Комптон, Дэвид Э. Пэкинпах, Джерри О’Коннелл

В ролях: Джерри О'Коннел, Сабрина Ллойд, Джон Рис-Дэвис, Клевант Деррикс, Кери Вюрер, Чарли О'Коннел, Роберт Флойд, Темби Локке, Лестер Барри, Уилл Сассо

О фильме: Молодой и талантливый начинающий учёный Куин Мелори, работая в своём подвале над созданием антигравитационной машины, изобретает устройство создающее червоточины — порталы, связывающие два параллельных мира. После перехода путешественника сквозь такой портал, он оказывается в альтернативной реальности, которая может кардинально отличаться от нашей. При этом, перемещаясь через портал, путешественник не знает, в какой из бесчисленных вариаций параллельных вселенных он окажется. Устройство имеет таймер, ведущий обратный отсчёт времени. По истечении времени таймера путешественник возвращается в свою реальность. Процесс перехода сквозь портал был назван «скольжением» (отсюда и название сериала)

Релиз от:

Страна: США
Студия: FOX (1-3 сезон), Sci-Fi (4-5 сезон)
Продолжительность: 10x45 мин.

Файл
Кодек: MPEG-2 Video (NTSC)
Качество: DVDRemux
Видео: 720x480 (4:3), 29.970 fps, ~5 650 Kbps, 0.546 bit/pixel
Звук и Перевод:
1) AC3, 48khz, 2ch, 256 kb/s - Авторский (одноголосный, закадровый): Визгунов Сергей (1x01-10)
2) AC3, 48khz, 2ch, 192 kb/s - Профессиональный (многоголосный, закадровый): Телеканал СТС (1x01-02,07-10)
3) MP3, 48khz, 2ch, 128kb/s - Профессиональный (многоголосный, закадровый): Телеканал SyFy (1x01-10)
4) AC3, 48khz, 2ch, 192 kb/s - Оригинал: English (1x01-10)
5) AC3, 48khz, 2ch, 192 kb/s - Оригинал: Commentary (1x01-02)
Субтитры: Английские, Испанские, Французcкие

АНОНСЫ ПОПУЛЯРНЫХ РАЗДАЧ


Остальные раздачи сериала в аналогичном качестве:
2 Сезон - Здесь
3 Сезон - Здесь
4 Сезон - Здесь
5 Сезон - Здесь
Общее
Уникальный идентификатор : 188580191152046541316464210083382577869 (0x8DDF3944C884E86188D4809106BC4ACD)
Полное имя : ....SlidersSeason 11x10 The luck of the draw [ВИЗГУНОВ]+[СТС]+[SyFy]+[ENG].mkv
Формат : Matroska
Версия формата : Version 4 / Version 2
Размер файла : 2,03 Гбайт
Продолжительность : 44 м.
Режим общего битрейта : Переменный
Общий поток : 6551 Кбит/сек
Дата кодирования : UTC 2013-06-05 17:14:30
Программа кодирования : mkvmerge v6.2.0 ('Promised Land') built on Apr 28 2013 12:22:01
Библиотека кодирования : libebml v1.3.0 + libmatroska v1.4.0

Видео
Идентификатор : 1
Формат : MPEG Video
Версия формата : Version 2
Профиль формата : Main@Main
Параметр BVOP формата : Нет
Параметр матрицы формата : Выборочная
Идентификатор кодека : V_MPEG2
Идентификатор кодека/Информация: MPEG 1 or 2 Video
Продолжительность : 44 м.
Вид битрейта : Переменный
Битрейт : 5652 Кбит/сек
Максимальный битрейт : 9230 Кбит/сек
Ширина : 720 пикс.
Высота : 480 пикс.
Соотношение сторон : 4:3
Режим частоты кадров : Постоянный
Частота кадров : 29,970 кадр/сек
Стандарт вещания : NTSC
Цветовое пространство : YUV
Подвыборка цветности : 4:2:0
Битовая глубина : 8 бит
Тип развёртки : Чересстрочная
Порядок развёртки : Верхнее поле первое
Метод сжатия : С потерями
Бит/(Пиксели*Кадры) : 0.546
Размер потока : 1,76 Гбайт (86%)
Язык : English
Default : Нет
Forced : Нет

Аудио #1
Идентификатор : 2
Формат : AC-3
Формат/Информация : Audio Coding 3
Расширение режима : CM (complete main)
Параметр Endianness формата : Big
Идентификатор кодека : A_AC3
Продолжительность : 44 м.
Вид битрейта : Постоянный
Битрейт : 256 Кбит/сек
Каналы : 2 канала
Расположение каналов : Front: L R
Частота : 48,0 КГц
Битовая глубина : 16 бит
Метод сжатия : С потерями
Размер потока : 81,4 Мбайт (4%)
Заголовок : Визгунов
Язык : Russian
Default : Да
Forced : Нет

Аудио #2
Идентификатор : 3
Формат : AC-3
Формат/Информация : Audio Coding 3
Расширение режима : CM (complete main)
Параметр Endianness формата : Big
Идентификатор кодека : A_AC3
Продолжительность : 44 м.
Вид битрейта : Постоянный
Битрейт : 192 Кбит/сек
Каналы : 2 канала
Расположение каналов : Front: L R
Частота : 48,0 КГц
Битовая глубина : 16 бит
Метод сжатия : С потерями
Размер потока : 61,1 Мбайт (3%)
Заголовок : СТС
Язык : Russian
Default : Нет
Forced : Нет

Аудио #3
Идентификатор : 4
Формат : MPEG Audio
Версия формата : Version 1
Профиль формата : Layer 3
Режим : Joint stereo
Расширение режима : MS Stereo
Идентификатор кодека : A_MPEG/L3
Идентификатор кодека/Подсказка : MP3
Продолжительность : 44 м.
Вид битрейта : Постоянный
Битрейт : 128 Кбит/сек
Каналы : 2 канала
Частота : 48,0 КГц
Метод сжатия : С потерями
Размер потока : 40,7 Мбайт (2%)
Заголовок : SyFy
Язык : Russian
Default : Нет
Forced : Нет

Аудио #4
Идентификатор : 5
Формат : AC-3
Формат/Информация : Audio Coding 3
Профиль формата : Dolby Digital
Расширение режима : CM (complete main)
Параметр Endianness формата : Big
Идентификатор кодека : A_AC3
Продолжительность : 44 м.
Вид битрейта : Постоянный
Битрейт : 192 Кбит/сек
Каналы : 2 канала
Расположение каналов : Front: L R
Частота : 48,0 КГц
Битовая глубина : 16 бит
Метод сжатия : С потерями
Размер потока : 61,1 Мбайт (3%)
Заголовок : English
Язык : English
Default : Нет
Forced : Нет

Текст #1
Идентификатор : 6
Формат : VobSub
Режим смешивания : zlib
Идентификатор кодека : S_VOBSUB
Идентификатор кодека/Информация: The same subtitle format used on DVDs
Язык : English
Default : Да
Forced : Нет

Текст #2
Идентификатор : 7
Формат : VobSub
Режим смешивания : zlib
Идентификатор кодека : S_VOBSUB
Идентификатор кодека/Информация: The same subtitle format used on DVDs
Язык : Spanish
Default : Нет
Forced : Нет

Текст #3
Идентификатор : 8
Формат : VobSub
Режим смешивания : zlib
Идентификатор кодека : S_VOBSUB
Идентификатор кодека/Информация: The same subtitle format used on DVDs
Язык : French
Default : Нет
Forced : Нет



Скачать Скользящие.Параллельные.миры.Sliders.(сезон.01).(Трейси.Торме.и.др.).[1995.фантастика.мистика.приключения.ужасы.триллер.DVDRemux].2x[MVO.(СТС.SyFy)]+[AVO.(C.Визгунов)]+[Eng]+[Subs].torrent без регистрации
Золото ЗОЛОТАЯ РАЗДАЧА! СКАЧАННОЕ НЕ ЗАСЧИТЫВАЕТСЯ! Золото
Дата: Зарегистрирован   [ Тип: внутренний ] Как тут cкачать?
MAGNET ссылка
MAGNET ссылка


Скачать .torrent

52 KB

Статус: проверено DHT
Скачан: торрент - 116 раз, раздача полностью - 45 раз
Размер: 20,19 GB
Оценка:  5 (Голосов: 1)
Поблагодарили: 4
Поделиться ссылкой на эту раздачу с друзьями:
В контактеFacebookОдноклассникиTwitterLivejournalМой МирLiveinternet
 

 
Показать сообщения:    


Вы не можете начинать темы
Вы не можете отвечать на сообщения
Вы не можете редактировать свои сообщения
Вы не можете удалять свои сообщения
Вы не можете голосовать в опросах
Вы не можете прикреплять файлы к сообщениям
Вы можете скачивать файлы