Loading...
Error

Скачать Скользящие / Параллельные миры / Sliders (сезон 04) (Трейси Торме и др.) [1998, фантастика, мистика, приключения, ужасы, триллер, DVDRemux] 2x[MVO (СТС, SyFy)]+[AVO (C.Визгунов)]+[Eng]+[Subs] торрент без регистрации

 
Статистика раздачи
Размер:  39,71 GB   |    Скачан:  112 раз
Сидов:  1  [  0 KB/s  ]  
 
Автор Сообщение

МихаНЕзатор

[] 

Информация о фильме
Название: Скользящие
Оригинальное название: Sliders
Год выхода: 1998
Жанр: Фантастика, Мистика, Приключения, Ужасы, Триллер
Режиссер: Трейси Торме, Роберк Вайс, Марио Аццопарди, Ричард Комптон, Дэвид Э. Пэкинпах, Джерри О’Коннелл

В ролях: Джерри О'Коннел, Сабрина Ллойд, Джон Рис-Дэвис, Клевант Деррикс, Кери Вюрер, Чарли О'Коннел, Роберт Флойд, Темби Локке, Лестер Барри, Уилл Сассо

О фильме: Молодой и талантливый начинающий учёный Куин Мелори, работая в своём подвале над созданием антигравитационной машины, изобретает устройство создающее червоточины — порталы, связывающие два параллельных мира. После перехода путешественника сквозь такой портал, он оказывается в альтернативной реальности, которая может кардинально отличаться от нашей. При этом, перемещаясь через портал, путешественник не знает, в какой из бесчисленных вариаций параллельных вселенных он окажется. Устройство имеет таймер, ведущий обратный отсчёт времени. По истечении времени таймера путешественник возвращается в свою реальность. Процесс перехода сквозь портал был назван «скольжением» (отсюда и название сериала)

Релиз от:

Страна: США
Студия: FOX (1-3 сезон), Sci-Fi (4-5 сезон)
Продолжительность: 22x45 мин.

Файл
Кодек: MPEG-2 Video (NTSC)
Качество: DVDRemux
Видео: 720x480 (4:3), 29.970 fps, ~4100~5400 Kbps, 0.406~0.520 bit/pixel
Звук и Перевод:
1) AC3, 48khz, 2ch, 256 kb/s - Авторский (одноголосный, закадровый): Визгунов Сергей (4x01-19,22)
2) AC3, 48khz, 2ch, 192 kb/s - Профессиональный (многоголосный, закадровый): Телеканал СТС (4x01-03,05-22)
3) MP3, 48khz, 2ch, 128kb/s - Профессиональный (многоголосный, закадровый): Телеканал SyFy (4x01-15,17-22)
4) AC3, 48khz, 2ch, 192 kb/s - Оригинал: English (4x01-22)

Субтитры: Английские

АНОНСЫ ПОПУЛЯРНЫХ РАЗДАЧ


Остальные раздачи сериала в аналогичном качестве:
1 Сезон - Здесь
2 Сезон - Здесь
3 Сезон - Здесь
5 Сезон - Здесь
Общее
Уникальный идентификатор : 199146922805011555789659898657937420264 (0x95D24D5CBC2BF99DA6ACBE8BC531EFE8)
Полное имя : ...SlidersSeason 44x01 Genesis [ВИЗГУНОВ]+[СТС (неполный)]+[SyFy]+[ENG].mkv
Формат : Matroska
Версия формата : Version 4 / Version 2
Размер файла : 2,00 Гбайт
Продолжительность : 45 м.
Режим общего битрейта : Переменный
Общий поток : 6258 Кбит/сек
Дата кодирования : UTC 2013-06-25 16:52:27
Программа кодирования : mkvmerge v6.2.0 ('Promised Land') built on Apr 28 2013 12:22:01
Библиотека кодирования : libebml v1.3.0 + libmatroska v1.4.0

Видео
Идентификатор : 1
Формат : MPEG Video
Версия формата : Version 2
Профиль формата : Main@Main
Параметр BVOP формата : Нет
Параметр матрицы формата : Выборочная
Идентификатор кодека : V_MPEG2
Идентификатор кодека/Информация: MPEG 1 or 2 Video
Продолжительность : 45 м.
Вид битрейта : Переменный
Битрейт : 5237 Кбит/сек
Максимальный битрейт : 9800 Кбит/сек
Ширина : 720 пикс.
Высота : 480 пикс.
Соотношение сторон : 4:3
Режим частоты кадров : Постоянный
Частота кадров : 29,970 кадр/сек
Стандарт вещания : NTSC
Цветовое пространство : YUV
Подвыборка цветности : 4:2:0
Битовая глубина : 8 бит
Тип развёртки : Чересстрочная
Порядок развёртки : Верхнее поле первое
Метод сжатия : С потерями
Бит/(Пиксели*Кадры) : 0.506
Размер потока : 1,67 Гбайт (84%)
Язык : English
Default : Нет
Forced : Нет

Аудио #1
Идентификатор : 2
Формат : AC-3
Формат/Информация : Audio Coding 3
Расширение режима : CM (complete main)
Параметр Endianness формата : Big
Идентификатор кодека : A_AC3
Продолжительность : 45 м.
Вид битрейта : Постоянный
Битрейт : 256 Кбит/сек
Каналы : 2 канала
Расположение каналов : Front: L R
Частота : 48,0 КГц
Битовая глубина : 16 бит
Метод сжатия : С потерями
Размер потока : 83,7 Мбайт (4%)
Заголовок : Визгунов
Язык : Russian
Default : Да
Forced : Нет

Аудио #2
Идентификатор : 3
Формат : AC-3
Формат/Информация : Audio Coding 3
Расширение режима : CM (complete main)
Параметр Endianness формата : Big
Идентификатор кодека : A_AC3
Продолжительность : 45 м.
Вид битрейта : Постоянный
Битрейт : 256 Кбит/сек
Каналы : 2 канала
Расположение каналов : Front: L R
Частота : 48,0 КГц
Битовая глубина : 16 бит
Метод сжатия : С потерями
Размер потока : 83,7 Мбайт (4%)
Заголовок : СТС [пропуски: 11:35-11:39,11:43-11:46,32:35-32:39,42:06-42:08]
Язык : Russian
Default : Нет
Forced : Нет

Аудио #3
Идентификатор : 4
Формат : AC-3
Формат/Информация : Audio Coding 3
Расширение режима : CM (complete main)
Параметр Endianness формата : Big
Идентификатор кодека : A_AC3
Продолжительность : 45 м.
Вид битрейта : Постоянный
Битрейт : 192 Кбит/сек
Каналы : 2 канала
Расположение каналов : Front: L R
Частота : 48,0 КГц
Битовая глубина : 16 бит
Метод сжатия : С потерями
Размер потока : 62,8 Мбайт (3%)
Заголовок : SyFy
Язык : Russian
Default : Нет
Forced : Нет

Аудио #4
Идентификатор : 5
Формат : AC-3
Формат/Информация : Audio Coding 3
Расширение режима : CM (complete main)
Параметр Endianness формата : Big
Идентификатор кодека : A_AC3
Продолжительность : 45 м.
Вид битрейта : Постоянный
Битрейт : 192 Кбит/сек
Каналы : 2 канала
Расположение каналов : Front: L R
Частота : 48,0 КГц
Битовая глубина : 16 бит
Метод сжатия : С потерями
Размер потока : 62,8 Мбайт (3%)
Заголовок : English
Язык : English
Default : Нет
Forced : Нет

Текст #1
Идентификатор : 6
Формат : UTF-8
Идентификатор кодека : S_TEXT/UTF8
Идентификатор кодека/Информация: UTF-8 Plain Text
Язык : English
Default : Нет
Forced : Нет

Текст #2
Идентификатор : 7
Формат : VobSub
Режим смешивания : zlib
Идентификатор кодека : S_VOBSUB
Идентификатор кодека/Информация: The same subtitle format used on DVDs
Язык : English
Default : Да
Forced : Нет



Скачать Скользящие.Параллельные.миры.Sliders.(сезон.04).(Трейси.Торме.и.др.).[1998.фантастика.мистика.приключения.ужасы.триллер.DVDRemux].2x[MVO.(СТС.SyFy)]+[AVO.(C.Визгунов)]+[Eng]+[Subs].torrent без регистрации
Золото ЗОЛОТАЯ РАЗДАЧА! СКАЧАННОЕ НЕ ЗАСЧИТЫВАЕТСЯ! Золото
Дата: Зарегистрирован   [ Тип: внутренний ] Как тут cкачать?
MAGNET ссылка
MAGNET ссылка


Скачать .torrent

103 KB

Статус: проверено DHT
Скачан: торрент - 112 раз, раздача полностью - 21 раз
Размер: 39,71 GB
Оценка:  - (Голосов: 0)
Поблагодарили: 2
Поделиться ссылкой на эту раздачу с друзьями:
В контактеFacebookОдноклассникиTwitterLivejournalМой МирLiveinternet
 

 
Показать сообщения:    


Вы не можете начинать темы
Вы не можете отвечать на сообщения
Вы не можете редактировать свои сообщения
Вы не можете удалять свои сообщения
Вы не можете голосовать в опросах
Вы не можете прикреплять файлы к сообщениям
Вы можете скачивать файлы