Loading...
Error

Скачать Скользящие / Параллельные миры / Sliders (сезон 05) (Трейси Торме и др.) [1999, фантастика, мистика, приключения, ужасы, триллер, DVDRemux] 2x[MVO (СТС, SyFy)]+[AVO (C.Визгунов)]+[Eng]+[Subs] торрент без регистрации

 
Статистика раздачи
Размер:  32,24 GB   |    Скачан:  111 раз
Сидов:  1  [  0 KB/s  ]  
 
Автор Сообщение

МихаНЕзатор

[] 

Информация о фильме
Название: Скользящие
Оригинальное название: Sliders
Год выхода: 1999
Жанр: Фантастика, Мистика, Приключения, Ужасы, Триллер
Режиссер: Трейси Торме, Роберк Вайс, Марио Аццопарди, Ричард Комптон, Дэвид Э. Пэкинпах, Джерри О’Коннелл

В ролях: Джерри О'Коннел, Сабрина Ллойд, Джон Рис-Дэвис, Клевант Деррикс, Кери Вюрер, Чарли О'Коннел, Роберт Флойд, Темби Локке, Лестер Барри, Уилл Сассо

О фильме: Молодой и талантливый начинающий учёный Куин Мелори, работая в своём подвале над созданием антигравитационной машины, изобретает устройство создающее червоточины — порталы, связывающие два параллельных мира. После перехода путешественника сквозь такой портал, он оказывается в альтернативной реальности, которая может кардинально отличаться от нашей. При этом, перемещаясь через портал, путешественник не знает, в какой из бесчисленных вариаций параллельных вселенных он окажется. Устройство имеет таймер, ведущий обратный отсчёт времени. По истечении времени таймера путешественник возвращается в свою реальность. Процесс перехода сквозь портал был назван «скольжением» (отсюда и название сериала)

Релиз от:

Страна: США
Студия: FOX (1-3 сезон), Sci-Fi (4-5 сезон)
Продолжительность: 18x45 мин.

Файл
Кодек: MPEG-2 Video (NTSC)
Качество: DVDRemux
Видео: 720x480 (4:3), 29.970 fps, ~4100~5400 Kbps, 0.406~0.520 bit/pixel
Звук и Перевод:
1) AC3, 48khz, 2ch, 256 kb/s - Авторский (одноголосный, закадровый): Визгунов Сергей (5x01-02,04-07)
2) AC3, 48khz, 2ch, 192 kb/s - Профессиональный (многоголосный, закадровый): Телеканал СТС (5x01-18)
3) MP3, 48khz, 2ch, 128kb/s - Профессиональный (многоголосный, закадровый): Телеканал SyFy (5x01-18)
4) AC3, 48khz, 2ch, 192 kb/s - Оригинал: English (5x01-18)

Субтитры: Английские

АНОНСЫ ПОПУЛЯРНЫХ РАЗДАЧ


Остальные раздачи сериала в аналогичном качестве:
1 Сезон - Здесь
2 Сезон - Здесь
3 Сезон - Здесь
4 Сезон - Здесь
Общее
Уникальный идентификатор : 221449379435751330321053021917213068743 (0xA699995EC1D0A2B082F5C33D426F8DC7)
Полное имя : W:MYSlidersSeason 55x01 The Unstuck Man {DVD} {NTSC} [ВИЗГУНОВ]+[СТС]+[SyFy]+[ENG+sub].mkv
Формат : Matroska
Версия формата : Version 4 / Version 2
Размер файла : 1,86 Гбайт
Продолжительность : 44 м.
Режим общего битрейта : Переменный
Общий поток : 5972 Кбит/сек
Дата кодирования : UTC 2015-04-15 07:52:47
Программа кодирования : mkvmerge v7.8.0 ('River Man') 64bit built on Mar 27 2015 16:31:37
Библиотека кодирования : libebml v1.3.1 + libmatroska v1.4.2

Видео
Идентификатор : 1
Формат : MPEG Video
Версия формата : Version 2
Профиль формата : Main@Main
Параметр BVOP формата : Нет
Параметр матрицы формата : Выборочная
Идентификатор кодека : V_MPEG2
Идентификатор кодека/Информация: MPEG 1 or 2 Video
Продолжительность : 44 м.
Вид битрейта : Переменный
Битрейт : 4894 Кбит/сек
Максимальный битрейт : 9800 Кбит/сек
Ширина : 720 пикс.
Высота : 480 пикс.
Соотношение сторон : 4:3
Режим частоты кадров : Постоянный
Частота кадров : 29,970 кадр/сек
Стандарт вещания : NTSC
Цветовое пространство : YUV
Подвыборка цветности : 4:2:0
Битовая глубина : 8 бит
Тип развёртки : Чересстрочная
Порядок развёртки : Верхнее поле первое
Метод сжатия : С потерями
Бит/(Пиксели*Кадры) : 0.472
Размер потока : 1,53 Гбайт (82%)
Язык : English
Default : Нет
Forced : Нет

Аудио #1
Идентификатор : 2
Формат : AC-3
Формат/Информация : Audio Coding 3
Расширение режима : CM (complete main)
Параметр Endianness формата : Big
Идентификатор кодека : A_AC3
Продолжительность : 44 м.
Вид битрейта : Постоянный
Битрейт : 256 Кбит/сек
Каналы : 2 канала
Расположение каналов : Front: L R
Частота : 48,0 КГц
Битовая глубина : 16 бит
Метод сжатия : С потерями
Размер потока : 81,9 Мбайт (4%)
Заголовок : Визгунов
Язык : Russian
Default : Да
Forced : Нет

Аудио #2
Идентификатор : 3
Формат : AC-3
Формат/Информация : Audio Coding 3
Расширение режима : CM (complete main)
Параметр Endianness формата : Big
Идентификатор кодека : A_AC3
Продолжительность : 44 м.
Вид битрейта : Постоянный
Битрейт : 256 Кбит/сек
Каналы : 2 канала
Расположение каналов : Front: L R
Частота : 48,0 КГц
Битовая глубина : 16 бит
Метод сжатия : С потерями
Размер потока : 81,9 Мбайт (4%)
Заголовок : СТС
Язык : Russian
Default : Нет
Forced : Нет

Аудио #3
Идентификатор : 4
Формат : AC-3
Формат/Информация : Audio Coding 3
Расширение режима : CM (complete main)
Параметр Endianness формата : Big
Идентификатор кодека : A_AC3
Продолжительность : 44 м.
Вид битрейта : Постоянный
Битрейт : 256 Кбит/сек
Каналы : 2 канала
Расположение каналов : Front: L R
Частота : 48,0 КГц
Битовая глубина : 16 бит
Метод сжатия : С потерями
Размер потока : 81,9 Мбайт (4%)
Заголовок : AXN
Язык : Russian
Default : Нет
Forced : Нет

Аудио #4
Идентификатор : 5
Формат : AC-3
Формат/Информация : Audio Coding 3
Расширение режима : CM (complete main)
Параметр Endianness формата : Big
Идентификатор кодека : A_AC3
Продолжительность : 44 м.
Вид битрейта : Постоянный
Битрейт : 192 Кбит/сек
Каналы : 2 канала
Расположение каналов : Front: L R
Частота : 48,0 КГц
Битовая глубина : 16 бит
Метод сжатия : С потерями
Размер потока : 61,4 Мбайт (3%)
Заголовок : English
Язык : English
Default : Нет
Forced : Нет

Текст
Идентификатор : 6
Формат : VobSub
Режим смешивания : zlib
Идентификатор кодека : S_VOBSUB
Идентификатор кодека/Информация: The same subtitle format used on DVDs
Язык : English
Default : Да
Forced : Нет



Скачать Скользящие.Параллельные.миры.Sliders.(сезон.05).(Трейси.Торме.и.др.).[1999.фантастика.мистика.приключения.ужасы.триллер.DVDRemux].2x[MVO.(СТС.SyFy)]+[AVO.(C.Визгунов)]+[Eng]+[Subs].torrent без регистрации
Золото ЗОЛОТАЯ РАЗДАЧА! СКАЧАННОЕ НЕ ЗАСЧИТЫВАЕТСЯ! Золото
Дата: Зарегистрирован   [ Тип: внутренний ] Как тут cкачать?
MAGNET ссылка
MAGNET ссылка


Скачать .torrent

83 KB

Статус: проверено DHT
Скачан: торрент - 111 раз, раздача полностью - 10 раз
Размер: 32,24 GB
Оценка:  - (Голосов: 0)
Поблагодарили: 2
Поделиться ссылкой на эту раздачу с друзьями:
В контактеFacebookОдноклассникиTwitterLivejournalМой МирLiveinternet
 

 
Показать сообщения:    


Вы не можете начинать темы
Вы не можете отвечать на сообщения
Вы не можете редактировать свои сообщения
Вы не можете удалять свои сообщения
Вы не можете голосовать в опросах
Вы не можете прикреплять файлы к сообщениям
Вы можете скачивать файлы