Loading...
Error

Скачать Эта ночь / Cette nuit-là... (Морис Казенёв) [1958, детектив, DVDRip] [Sub] торрент без регистрации

 
Статистика раздачи
Размер:  1,36 GB   |    Скачан:  79 раз

Полного источника не было: 24 минуты

 
Автор Сообщение

Marsianka

[] 

Информация о фильме
Название: Капитан Фракасс
Оригинальное название: Le Capitaine Fracasse
Год выхода: 1958
Жанр: детектив
Режиссер: Морис Казенёв
В ролях: Милен Демонжо, Морис Роне, Жан Сервэ, Франсуаз Прево, Жан Лара, Юбер Ноэль, Флоренс Арно, Жильбер Эдар, Ив Арканель, Марк Делшниц

О фильме: Жан (Морис Роне) работает арт-директором в глянцевом журнале. Он женат на прекрасной модели Сильви (Милен Демонжо), расположения которой практически в открытую домогается его шеф и хозяин издательства Андре Реверди. Обуреваемый ревностью, Жан решается на отчаянный шаг - убийство своего босса.



Страна: Франция, Soprofilms
Продолжительность: 01:30:17
Перевод: Отсутствует

Файл
Формат: AVI
Качество: DVDRip
Видео: XviD, 1950 Кбит/с, 656x384
Звук: Французский (АС3, 2 ch, 192 Кбит/с)
Субтитры: Русские
Format : AVI
Format/Info : Audio Video Interleave
File size : 1.36 GiB
Duration : 1h 30mn
Overall bit rate : 2 153 Kbps

Video
ID : 0
Format : MPEG-4 Visual
Format profile : Advanced Simple@L5
Format settings, BVOP : 1
Format settings, QPel : No
Format settings, GMC : No warppoints
Format settings, Matrix : Default (MPEG)
Codec ID : XVID
Codec ID/Hint : XviD
Duration : 1h 30mn
Bit rate : 1 951 Kbps
Width : 656 pixels
Height : 384 pixels
Display aspect ratio : 1.708
Frame rate : 25.000 fps
Color space : YUV
Chroma subsampling : 4:2:0
Bit depth : 8 bits
Scan type : Progressive
Compression mode : Lossy
Bits/(Pixel*Frame) : 0.310
Stream size : 1.23 GiB (91%)
Writing library : XviD 1.2.0.dev47 (UTC 2006-11-01)

Audio
ID : 1
Format : AC-3
Format/Info : Audio Coding 3
Mode extension : CM (complete main)
Format settings, Endianness : Big
Codec ID : 2000
Duration : 1h 30mn
Bit rate mode : Constant
Bit rate : 192 Kbps
Channel(s) : 2 channels
Channel positions : Front: L R
Sampling rate : 48.0 KHz
Bit depth : 16 bits
Compression mode : Lossy
Stream size : 124 MiB (9%)
Alignment : Split accross interleaves
Interleave, duration : 40 ms (1.00 video frame)
Interleave, preload duration : 500 ms
Релиз-группа:



Скачать Эта.ночь.Cette.nuit-là.(Морис.Казенёв).[1958.детектив.DVDRip].[Sub].torrent без регистрации
Золото ЗОЛОТАЯ РАЗДАЧА! СКАЧАННОЕ НЕ ЗАСЧИТЫВАЕТСЯ! Золото
Дата: Зарегистрирован   [ Тип: внутренний ] Как тут cкачать?
MAGNET ссылка
MAGNET ссылка


Скачать .torrent

14 KB

Статус: проверено DHT
Скачан: торрент - 79 раз, раздача полностью - 0 раз
Размер: 1,36 GB
Оценка:  - (Голосов: 0)
Поблагодарили: 0
Поделиться ссылкой на эту раздачу с друзьями:
В контактеFacebookОдноклассникиTwitterLivejournalМой МирLiveinternet
 

 
Показать сообщения:    


Вы не можете начинать темы
Вы не можете отвечать на сообщения
Вы не можете редактировать свои сообщения
Вы не можете удалять свои сообщения
Вы не можете голосовать в опросах
Вы не можете прикреплять файлы к сообщениям
Вы можете скачивать файлы