Loading...
Error

Скачать Иллюзия убийства 2 / F/X2 (Ричард Фрэнклин) [1991, боевик, детектив, триллер, HDTVRip] [ торрент без регистрации

 
Статистика раздачи
Размер:  1,46 GB   |    Скачан:  87 раз
Сидов:  1  [  0 KB/s  ]  
 
Автор Сообщение

Marsianka

[] 

Страна: США
Производство: Dodi Fayed - Jack Wiener, Orion Pictures Corporation
Жанр: боевик, детектив, триллер
Год выпуска: 1991
Продолжительность: 01:43:25

Перевод: Профессиональный (дублированный) + Профессиональный (многоголосый закадровый)
Оригинальная аудиодорожка: английский
Cубтитры: нет

Режиссер: Ричард Фрэнклин / Richard Franklin

В ролях:
Брайан Браун, Брайан Деннехи, Рэйчел Тикотин, Джоанна Глисон, Филип Боско, Кевин Дж. О’Коннор, Том Мэйсон, Доминик Зампрогна, Джосси Дегузман, Джон Уолш...

Роли дублировали:
Андрей Ташков, Вадим Андреев, Михаил Лебедев, Наталья Казначеева, Ирина Акулова...

Описание:
Спустя пять лет после своего первого опасного приключения, Ролли Тайлер оставил бизнес спецэффектов и зарабатывает на жизнь проектированием мудреных электронных игрушек. За помощью к нему обращается бывший супруг его подружки — полицейский детектив. Полицейским нужно достоверно разыграть сцену, чтобы поймать серийного убийцу, и Ролли в очередной раз соблазняется опасным миром киноиллюзий. Совсем скоро он обнаруживает себя в смертельном капкане лжи и предательства. Чтобы разоблачить опасные замыслы преступников, он может полагаться только на свои изобретательные трюки и старую дружбу с детективом Лео Маккарти — если, конечно, сумеет остаться в живых…

Исходник: HDTVRip 1080i
Тип релиза: HDTVRip
Контейнер: AVI

Видео: 720x384 (1,85:1), 25 fps, XviD ~ 1231 kbps avg, 0.207 bit/pixel
Аудио: 48 kHz, Dolby Digital AC3 2.0, 192 kbps DUB
Аудио: 48 kHz, Dolby Digital AC3 2.0, 192 kbps MVO
Аудио: 48 kHz, Dolby Digital AC3 2.0, 192 kbps Английский
Раздача от:

Общее
Полное имя : Illyuziya.ubiystva.2.1991.HDTVRip_[New-team]_by_AVP_Studio.avi
Формат : AVI
Формат/Информация : Audio Video Interleave
Размер файла : 1,46 Гбайт
Продолжительность : 1 ч. 43 м.
Общий поток : 2026 Кбит/сек
Программа кодирования : VirtualDubModRus 1.5.10.2 (build 2542/release)
Библиотека кодирования : VirtualDubMod build 2542/release

Видео
Идентификатор : 0
Формат : MPEG-4 Visual
Профиль формата : Advanced Simple@L5
Параметр BVOP формата : 1
Параметр QPel формата : Нет
Параметр GMC формата : Без точки перехода
Параметр матрицы формата : Выборочная
Идентификатор кодека : XVID
Идентификатор кодека/Подсказка : XviD
Продолжительность : 1 ч. 43 м.
Битрейт : 1431 Кбит/сек
Ширина : 720 пикселей
Высота : 384 пикселя
Соотношение сторон : 1,85:1
Частота кадров : 25,000 кадров/сек
Цветовое пространство : YUV
Субдискретизация насыщенности : 4:2:0
Битовая глубина : 8 бит
Тип развёртки : Прогрессивная
Метод сжатия : С потерями
Бит/(Пиксели*Кадры) : 0.207
Размер потока : 1,03 Гбайт (71%)
Библиотека кодирования : XviD 73

Аудио #1
Идентификатор : 1
Формат : AC-3
Формат/Информация : Audio Coding 3
Расширение режима : CM (complete main)
Параметр Endianness формата : Big
Идентификатор кодека : 2000
Продолжительность : 1 ч. 43 м.
Вид битрейта : Постоянный
Битрейт : 192 Кбит/сек
Каналы : 2 канала
Расположение каналов : Front: L R
Частота : 48,0 КГц
Битовая глубина : 16 бит
Метод сжатия : С потерями
Задержка видео : 43 мс.
Размер потока : 142 Мбайт (9%)
Выравнивание : Разделение по промежуткам
Продолжительность промежутка : 40 мс. (1,00 видеокадр)
Время предзагрузки промежутка : 500 мс.

Аудио #2
Идентификатор : 2
Формат : AC-3
Формат/Информация : Audio Coding 3
Расширение режима : CM (complete main)
Параметр Endianness формата : Big
Идентификатор кодека : 2000
Продолжительность : 1 ч. 43 м.
Вид битрейта : Постоянный
Битрейт : 192 Кбит/сек
Каналы : 2 канала
Расположение каналов : Front: L R
Частота : 48,0 КГц
Битовая глубина : 16 бит
Метод сжатия : С потерями
Размер потока : 142 Мбайт (9%)
Выравнивание : Разделение по промежуткам
Продолжительность промежутка : 40 мс. (1,00 видеокадр)
Время предзагрузки промежутка : 500 мс.

Аудио #3
Идентификатор : 3
Формат : AC-3
Формат/Информация : Audio Coding 3
Профиль формата : Dolby Digital
Расширение режима : CM (complete main)
Параметр Endianness формата : Big
Идентификатор кодека : 2000
Продолжительность : 1 ч. 43 м.
Вид битрейта : Постоянный
Битрейт : 192 Кбит/сек
Каналы : 2 канала
Расположение каналов : Front: L R
Частота : 48,0 КГц
Битовая глубина : 16 бит
Метод сжатия : С потерями
Размер потока : 142 Мбайт (9%)
Выравнивание : Разделение по промежуткам
Продолжительность промежутка : 40 мс. (1,00 видеокадр)
Время предзагрузки промежутка : 500 мс



Скачать Иллюзия.убийства.2.F.X2.(Ричард.Фрэнклин).[1991.боевик.детектив.триллер.HDTVRip].[.torrent без регистрации
Золото ЗОЛОТАЯ РАЗДАЧА! СКАЧАННОЕ НЕ ЗАСЧИТЫВАЕТСЯ! Золото
Дата: Зарегистрирован   [ Тип: внутренний ] Как тут cкачать?
MAGNET ссылка
MAGNET ссылка


Скачать .torrent

16 KB

Статус: проверено DHT
Скачан: торрент - 87 раз, раздача полностью - 11 раз
Размер: 1,46 GB
Оценка:  - (Голосов: 0)
Поблагодарили: 1
Поделиться ссылкой на эту раздачу с друзьями:
В контактеFacebookОдноклассникиTwitterLivejournalМой МирLiveinternet
 

 
Показать сообщения:    


Вы не можете начинать темы
Вы не можете отвечать на сообщения
Вы не можете редактировать свои сообщения
Вы не можете удалять свои сообщения
Вы не можете голосовать в опросах
Вы не можете прикреплять файлы к сообщениям
Вы можете скачивать файлы